The Before Trilogy (1995-2013)

Posted By: RSU75
The Before Trilogy (1995-2013)

Before Sunrise (1995) [Criterion Collection, Spine #856 - #857]
Blu-Ray | BDMV | AVC, 1920x1080, ~35.3 Mbps | 1hr 41mn | 45,3 GB
English: DTS-HD Master Audio, 2 ch, 2066 kbps
Subtitles: English
Genre: Drama, Romance
IMDB Rating: 8.1/10 (207.818 votes)
Criterion.com


Director: Richard Linklater
Writers: Richard Linklater, Kim Krizan
Stars: Ethan Hawke, Julie Delpy, Andrea Eckert

An exquisitely understated ode to the thrill of romantic possibility, the inaugural installment of The Before Trilogy opens with a chance encounter between two solitary young strangers. After they hit it off on a train bound for Vienna, the Paris university student Celine and the scrappy American tourist Jesse impulsively decide to spend a day together before he returns to the U.S. the next morning. As the pair roam the streets of the stately city, Richard Linklater’s tenderly observant gaze captures the uncertainty and intoxication of young love, from the first awkward stirrings of attraction to the hopeful promise that Celine and Jesse make upon their inevitable parting.

Bonus:
- The Space in Between - presented here is a filmed conversation between director Richard Linklater, Ethan Hawke, and Julie Delpy, moderated by critic Kent Jones. There is an abundance of information about Richard Linklater's film career and the production history of Before Sunrise, including the casting process, and the other two films in The Before Trilogy. The conversation was recorded exclusively for Criterion in New York and Los Angeles in 2016.
- 3X2: A Conversation - in this new featurette, writers Dave Johnson (Contemporary Film Directors: Richard Linklater) and Rob Stone (The Cinema of Richard Linklater: Walk, Don't Run) discuss Before Sunrise and some of the similarities and differences between the three films in The Before Trilogy.
- Behind the Scenes - in this archival piece, director Richard Linklater, Ethan Hawke, and Julie Delpy quickly address the unique nature of the relationship between Jesse and Celine.




DISC INFO:

Disc Title: Before.Sunrise.95.Cr.BR
Disc Size: 48 669 846 304 bytes
Protection: AACS
BD-Java: Yes
BDInfo: 0.5.8

PLAYLIST REPORT:

Name: 00001.MPLS
Length: 1:41:05.100 (h:m:s.ms)
Size: 29 877 393 408 bytes
Total Bitrate: 39,41 Mbps

VIDEO:

Codec Bitrate Description
––- –––- –––––-
MPEG-4 AVC Video 35340 kbps 1080p / 23,976 fps / 16:9 / High Profile 4.1

AUDIO:

Codec Language Bitrate Description
––- –––– –––- –––––-
DTS-HD Master Audio English 2066 kbps 2.0 / 48 kHz / 2066 kbps / 24-bit (DTS Core: 2.0 / 48 kHz / 1509 kbps / 24-bit)

SUBTITLES:

Codec Language Bitrate Description
––- –––– –––- –––––-
Presentation Graphics English 67,693 kbps

FILES:

Name Time In Length Size Total Bitrate
–– –––- ––– –– ––––––-
00274.M2TS 0:00:00.000 1:41:05.100 29 877 393 408 39 409

–––––––––––––––––––––––––––––––––––––––––––––––––––––––-




Screenshots (click to enlarge to original size):

The Before Trilogy (1995-2013)

The Before Trilogy (1995-2013)

The Before Trilogy (1995-2013)

The Before Trilogy (1995-2013)

The Before Trilogy (1995-2013)




–––––––––––––––––––––––––––––––––––––––––––––––––––––––-



The Before Trilogy (1995-2013)

Before Sunset (2004) [Criterion Collection, #856 - #858]
Blu-Ray | BDMV | AVC, 1920x1080, ~27.5 Mbps | 1hr 29mn | 45,5 GB
English: AC3, 6 ch, 640 kbps
Subtitles: English
Genre: Drama, Romance
IMDB Rating: 8.0/10 (183.192 votes)
Criterion.com


Director: Richard Linklater
Writers: Richard Linklater (screenplay), Julie Delpy (screenplay)
Stars: Ethan Hawke, Julie Delpy, Vernon Dobtcheff

In the breathtaking follow-up to Before Sunrise, Celine tracks down Jesse, now an author, at the tail end of his book tour in Paris, with only a few hours left before he is to board a flight back home to the States. Meeting almost a decade after their short-lived romance in Vienna, the pair find their chemistry rekindled by increasingly candid exchanges about professional setbacks, marital disappointments, and the compromises of adulthood. Impelled by an urgent sense of the transience of human connection, Before Sunset remains Richard Linklater’s most seductive experiment with time’s inexorable passage and the way love can seem to stop it in its tracks.


Bonus:
- Richard Linklater: Dream is Destiny - this documentary film takes a closer look at Richard Linklater's career and body of work as well as the evolution of his style and his success in the United States and abroad. Included in it are interviews with actors Julie Delpy, Ethan Hawke, Patricia Arquette, and Matthew McConaughey, filmmakers Kevin Smith and Jonathan Demme, writer John Pierson, editor Sandra Adair, Chuck Linklater (father), and Tricia Linklater (sister), amongst others. The documentary was directed by Louis Black for the PBS series American Masters in 2016.
- Linklater // On Cinema & Time - presented here is a brand new video essay by filmmaker Kogonada that examines the treatment of time and its evolving rhythm in Richard Linklater's films.
- Behind the Scenes - presented here is a standard archival featurette with footage from the shooting of Before Sunset in Paris and short interviews with cast and crew members.




DISC INFO:

Disc Title: Before.Sunset.04.Cr.BR
Disc Size: 48 880 789 748 bytes
Protection: AACS
BD-Java: Yes
BDInfo: 0.5.8

PLAYLIST REPORT:

Name: 00800.MPLS
Length: 1:29:52.428 (h:m:s.ms)
Size: 19 876 651 008 bytes
Total Bitrate: 29,49 Mbps

VIDEO:

Codec Bitrate Description
––- –––- –––––-
MPEG-4 AVC Video 27500 kbps 1080p / 23,976 fps / 16:9 / High Profile 4.1

AUDIO:

Codec Language Bitrate Description
––- –––– –––- –––––-
Dolby Digital Audio English 640 kbps 5.1 / 48 kHz / 640 kbps

FILES:

Name Time In Length Size Total Bitrate
–– –––- ––– –– ––––––-
00305.M2TS 0:00:00.000 1:29:52.428 19 876 651 008 29 488

–––––––––––––––––––––––––––––––––––––––––––––––––––––––-




Screenshots (click to enlarge to original size):

The Before Trilogy (1995-2013)

The Before Trilogy (1995-2013)

The Before Trilogy (1995-2013)

The Before Trilogy (1995-2013)

The Before Trilogy (1995-2013)





–––––––––––––––––––––––––––––––––––––––––––––––––––––––-




The Before Trilogy (1995-2013)

Before Midnight (2013) [Criterion Collection, #856 - #859]
Blu-Ray | BDMV | AVC, 1920x1080, ~34.0 Mbps | 1hr 48mn | 40,9 GB
English: DTS-HD Master Audio, 6 ch, 3458 kbps \ AC3, 2 ch, 192 kbps
Subtitles: English
Genre: Drama, Romance
IMDB Rating: 7.9/10 (108.192 votes)
Criterion.com


Director: Richard Linklater
Writers: Richard Linklater (screenplay), Julie Delpy (screenplay)
Stars: Ethan Hawke, Julie Delpy, Seamus Davey-Fitzpatrick

The conclusion of The Before Trilogy finds Celine and Jesse several years into a relationship and in the midst of a sun-dappled Greek retreat with their twin daughters and a group of friends. The couple soon find their vacation upended, however, by long-simmering problems that come to a boil. Marked by the emotional depth, piercing wit, and conversational exuberance that Linklater and his actors honed over two decades of abiding with these characters, Before Midnight grapples with the complexities of long-term intimacy, and asks what becomes of love when it has no recourse to its past illusions.

Bonus:
- Commentary - this audio commentary features writer/director Richard Linklater and actors Ethan Hawke and Julie Delpy. It was recorded in 2013 and initially appeared on the first Blu-ray release of Before Midnight from Sony Pictures Classics.
- After Before - presented here is a new documentary feature that was shot by coproducer and actor Athina Rachel Tsangari in Greece during the filming of Before Midnight in 2016. Included in it are clips from various discussions between director Richard Linklater, Ethan Hawke, and Julie Delpy, as well as raw footage from the shooting of various sequences.
- Love Darkens and Deepens - presented here is an episode of the radio program Fresh Air in which Terry Gross discusses the production history of Before Midnight and the evolution of the main characters, Jesse and Celine, since Before Sunset with Richard Linklater, Julie Delpy, and Ethan Hawke. The episode originally aired on May 30, 2013.




DISC INFO:

Disc Title: Before.Midnight.13.Cr.BR
Disc Size: 43 953 088 172 bytes
Protection: AACS
BD-Java: Yes
BDInfo: 0.5.8

PLAYLIST REPORT:

Name: 00001.MPLS
Length: 1:48:57.572 (h:m:s.ms)
Size: 32 516 689 920 bytes
Total Bitrate: 39,79 Mbps

VIDEO:

Codec Bitrate Description
––- –––- –––––-
MPEG-4 AVC Video 34050 kbps 1080p / 23,976 fps / 16:9 / High Profile 4.1

AUDIO:

Codec Language Bitrate Description
––- –––– –––- –––––-
DTS-HD Master Audio English 3458 kbps 5.1 / 48 kHz / 3458 kbps / 24-bit (DTS Core: 5.1 / 48 kHz / 1509 kbps / 24-bit)
Dolby Digital Audio English 192 kbps 2.0 / 48 kHz / 192 kbps

SUBTITLES:

Codec Language Bitrate Description
––- –––– –––- –––––-
Presentation Graphics English 92,906 kbps

FILES:

Name Time In Length Size Total Bitrate
–– –––- ––– –– ––––––-
00274.M2TS 0:00:00.000 1:48:57.572 32 516 689 920 39 791


–––––––––––––––––––––––––––––––––––––––––––––––––––––––-




Screenshots (click to enlarge to original size):

The Before Trilogy (1995-2013)

The Before Trilogy (1995-2013)

The Before Trilogy (1995-2013)

The Before Trilogy (1995-2013)

The Before Trilogy (1995-2013)



All thanks to the original uploader


–––––––––––––––––––––––––––––––––––––––-
>>> Other "Blu-Ray" <<< OR >>> "Criterion Collection" <<<
–––––––––––––––––––––––––––––––––––––––-
>>> Visit Blog RSU75 Here <<<
–––––––––––––––––––––––––––––––––––––––-