Behaving Badly (2009)

Posted By: Tavaz
1080p (FullHD) / WEBRip IMDb
Behaving Badly (2009)

Behaving Badly (2009)
WEBRip | MKV | 1920x1080 | English | H264 @ 7481 kbps | AAC @ 122 kbps | 1 h 37 min | 5.20 GiB
Genre: Comedy, Drama

A young couple coming to terms with issues of trust and fidelity in the days leading up to their wedding. A peek inside the lives of a young, soon-to-be-married couple and their small circle of friends.

a633f4f510924d8b94bec56374e04f65.mkv (5.2 GB)



General
Unique ID : 241798856891713419418405831390912906315 (0xB5E8C41210656234B130AE058839044B)
Complete name : ./a633f4f510924d8b94bec56374e04f65.mkv
Format : Matroska
Format version : Version 4 / Version 2
File size : 5.20 GiB
Duration : 1 h 37 min
Overall bit rate : 7 607 kb/s
Encoded date : UTC 2018-05-19 08:28:49
Writing application : mkvmerge v8.3.0 ('Over the Horizon') 64bit
Writing library : libebml v1.3.1 + libmatroska v1.4.2

Video
ID : 1
Format : AVC
Format/Info : Advanced Video Codec
Format profile : High@L4.1
Format settings : CABAC / 4 Ref Frames
Format settings, CABAC : Yes
Format settings, RefFrames : 4 frames
Codec ID : V_MPEG4/ISO/AVC
Duration : 1 h 37 min
Bit rate : 7 482 kb/s
Width : 1 920 pixels
Height : 1 080 pixels
Display aspect ratio : 16:9
Frame rate mode : Constant
Frame rate : 23.976 (24000/1001) FPS
Color space : YUV
Chroma subsampling : 4:2:0
Bit depth : 8 bits
Scan type : Progressive
Bits/(Pixel*Frame) : 0.150
Stream size : 5.11 GiB (98%)
Writing library : x264 core 155 r2901 7d0ff22
Encoding settings : cabac=1 / ref=4 / deblock=1:-3:-3 / analyse=0x3:0x133 / me=umh / subme=11 / psy=1 / psy_rd=1.05:0.15 / mixed_ref=1 / me_range=16 / chroma_me=1 / trellis=2 / 8x8dct=1 / cqm=0 / deadzone=21,11 / fast_pskip=0 / chroma_qp_offset=-3 / threads=12 / lookahead_threads=1 / sliced_threads=0 / nr=0 / decimate=1 / interlaced=0 / bluray_compat=0 / constrained_intra=0 / bframes=3 / b_pyramid=2 / b_adapt=2 / b_bias=0 / direct=3 / weightb=1 / open_gop=0 / weightp=2 / keyint=250 / keyint_min=24 / scenecut=40 / intra_refresh=0 / rc_lookahead=50 / rc=crf / mbtree=1 / crf=17.0 / qcomp=0.60 / qpmin=0 / qpmax=69 / qpstep=4 / ip_ratio=1.40 / aq=3:0.65
Language : English
Default : Yes
Forced : No

Audio
ID : 2
Format : AAC
Format/Info : Advanced Audio Codec
Format profile : LC
Codec ID : A_AAC-2
Duration : 1 h 37 min
Bit rate : 123 kb/s
Channel(s) : 2 channels
Channel positions : Front: L R
Sampling rate : 48.0 kHz
Frame rate : 46.875 FPS (1024 SPF)
Compression mode : Lossy
Delay relative to video : 9 ms
Stream size : 85.8 MiB (2%)
Language : English
Default : Yes
Forced : No

Menu
00:00:00.054 : en:00:00:00.054





Behaving Badly (2009)


Behaving Badly (2009)


Behaving Badly (2009)


Behaving Badly (2009)


Behaving Badly (2009)