Big Hero 6 (2014)

Posted By: Without
Big Hero 6 (2014)

Big Hero 6 (2014)
DVDRip | MKV | 720×400 | AVC@1800 Kbps | English AC-3@384 Kbps | Subs: English, Spanish, French | 6 channels | 01:41:51 | 1.56 GB
Genre: Animation | Action | Adventure

The special bond that develops between plus-sized inflatable robot Baymax, and prodigy Hiro Hamada, who team up with a group of friends to form a band of high-tech heroes.

Won 1 Oscar. Another 13 wins & 36 nominations

General
Unique ID : 246458155818748565734387720226088182004 (0xB96A1D3E5F59FB04EBA62154901060F4)
Complete name : Big.Hero.6.2014.DVDRip.x264-NoRBiT.mkv
Format : Matroska
Format version : Version 2
File size : 1.57 GiB
Duration : 1h 41mn
Overall bit rate : 2 201 Kbps
Writing application : HandBrake 0.9.8
Writing library : libmkv 0.6.5

Video
ID : 1
Format : AVC
Format/Info : Advanced Video Codec
Format profile : High@L3.1
Format settings, CABAC : Yes
Format settings, ReFrames : 9 frames
Codec ID : V_MPEG4/ISO/AVC
Duration : 1h 41mn
Bit rate : 1 800 Kbps
Width : 720 pixels
Height : 400 pixels
Display aspect ratio : 16:9
Frame rate mode : Constant
Frame rate : 23.976 fps
Color space : YUV
Chroma subsampling : 4:2:0
Bit depth : 8 bits
Scan type : Progressive
Bits/(Pixel*Frame) : 0.261
Stream size : 1.26 GiB (81%)
Writing library : x264 core 120
Encoding settings : cabac=1 / ref=9 / deblock=1:0:0 / analyse=0x3:0x133 / me=umh / subme=9 / psy=1 / psy_rd=0.70:0.00 / mixed_ref=1 / me_range=24 / chroma_me=1 / trellis=2 / 8x8dct=1 / cqm=0 / deadzone=21,11 / fast_pskip=0 / chroma_qp_offset=-2 / threads=6 / sliced_threads=0 / nr=0 / decimate=1 / interlaced=0 / bluray_compat=0 / constrained_intra=0 / bframes=7 / b_pyramid=2 / b_adapt=2 / b_bias=0 / direct=3 / weightb=1 / open_gop=0 / weightp=2 / keyint=240 / keyint_min=24 / scenecut=40 / intra_refresh=0 / rc_lookahead=50 / rc=2pass / mbtree=1 / bitrate=1800 / ratetol=1.0 / qcomp=0.60 / qpmin=3 / qpmax=69 / qpstep=4 / cplxblur=20.0 / qblur=0.5 / ip_ratio=1.40 / aq=1:1.00
Language : English
Default : Yes
Forced : No
Color primaries : BT.601 NTSC
Transfer characteristics : BT.709
Matrix coefficients : BT.601

Audio
ID : 2
Format : AC-3
Format/Info : Audio Coding 3
Mode extension : CM (complete main)
Format settings, Endianness : Big
Codec ID : A_AC3
Duration : 1h 41mn
Bit rate mode : Constant
Bit rate : 384 Kbps
Channel(s) : 6 channels
Channel positions : Front: L C R, Side: L R, LFE
Sampling rate : 48.0 KHz
Bit depth : 16 bits
Compression mode : Lossy
Stream size : 280 MiB (17%)
Language : English
Default : Yes
Forced : No

Text #1
ID : 3
Format : VobSub
Codec ID : S_VOBSUB
Codec ID/Info : The same subtitle format used on DVDs
Language : English
Default : No
Forced : No

Text #2
ID : 4
Format : VobSub
Codec ID : S_VOBSUB
Codec ID/Info : The same subtitle format used on DVDs
Language : English
Default : No
Forced : No

Text #3
ID : 5
Format : VobSub
Codec ID : S_VOBSUB
Codec ID/Info : The same subtitle format used on DVDs
Language : Spanish
Default : No
Forced : No

Text #4
ID : 6
Format : VobSub
Codec ID : S_VOBSUB
Codec ID/Info : The same subtitle format used on DVDs
Language : French
Default : No
Forced : No

Text #5
ID : 7
Format : VobSub
Codec ID : S_VOBSUB
Codec ID/Info : The same subtitle format used on DVDs
Language : French
Default : No
Forced : No

Text #6
ID : 8
Format : UTF-8
Codec ID : S_TEXT/UTF8
Codec ID/Info : UTF-8 Plain Text
Language : English
Default : No
Forced : No

Menu
00:00:00.000 : Chapter 1
00:07:14.809 : Chapter 2
00:14:37.042 : Chapter 3
00:21:48.307 : Chapter 4
00:24:32.012 : Chapter 5
00:29:33.938 : Chapter 6
00:36:57.215 : Chapter 7
00:44:17.696 : Chapter 8
00:50:48.253 : Chapter 9
00:54:32.310 : Chapter 10
01:00:43.473 : Chapter 11
01:07:11.902 : Chapter 12
01:11:53.976 : Chapter 13
01:16:25.956 : Chapter 14
01:24:43.453 : Chapter 15
01:31:52.048 : Chapter 16



Screenshots

Big Hero 6 (2014)

Big Hero 6 (2014)

Big Hero 6 (2014)

Big Hero 6 (2014)

Big Hero 6 (2014)

Big Hero 6 (2014)


Come Visit My Blog (•‿•)