Big Hero 6: The Series S01E01-E02 (2017)

Posted By: Without
1080p (FullHD) / WEB-DL IMDb
Big Hero 6: The Series S01E01-E02 (2017)

Big Hero 6: The Series S01E01-E02 (2017)
WEB-DL | MP4 | 720x400 | AVC@721 kb/s | English AAC@128 kb/s
Subs: English | 2 channels | 42 min 41 s | 261 MB
WEB-DL 720p | MKV | 1280x720 | AVC@3996 kb/s | English AC3@384 kb/s
Subs: English | 6 channels | 42 min 41 s | 1.31 GB
WEB-DL 1080p | MKV | 1920x1080 | AVC@5099 kb/s | English AC3@384 kb/s
Subs: English | 6 channels | 42 min 41 s | 1.64 GB
Genre: Animation, Action, Adventure

As the new prodigy at San Fransokyo Institute of Technology, Hiro now faces daunting academic challenges and the social trials of being the little man on campus. Off campus, the stakes are raised for the high-tech heroes as they must protect their city from an array of scientifically enhanced villains.



General
Format : MPEG-4
Format profile : Base Media
Codec ID : isom (isom/iso2/avc1/mp41)
File size : 261 MiB
Duration : 42 min 41 s
Overall bit rate : 855 kb/s
Encoded date : UTC 2017-11-21 16:58:22
Tagged date : UTC 2017-11-21 16:58:22
Writing application : Lavf57.71.100

Video
ID : 1
Format : AVC
Format/Info : Advanced Video Codec
Format profile : High@L3.1
Format settings, CABAC : Yes
Format settings, ReFrames : 5 frames
Codec ID : avc1
Codec ID/Info : Advanced Video Coding
Duration : 42 min 41 s
Bit rate : 721 kb/s
Width : 720 pixels
Height : 400 pixels
Display aspect ratio : 16:9
Frame rate mode : Constant
Frame rate : 23.976 (24000/1001) FPS
Color space : YUV
Chroma subsampling : 4:2:0
Bit depth : 8 bits
Scan type : Progressive
Bits/(Pixel*Frame) : 0.104
Stream size : 220 MiB (84%)
Writing library : x264 core 152 r2851M ba24899
Encoding settings : cabac=1 / ref=5 / deblock=1:-1:-1 / analyse=0x3:0x113 / me=umh / subme=9 / psy=1 / psy_rd=1.00:0.15 / mixed_ref=1 / me_range=16 / chroma_me=1 / trellis=2 / 8x8dct=1 / cqm=0 / deadzone=21,11 / fast_pskip=1 / chroma_qp_offset=-3 / threads=12 / lookahead_threads=1 / sliced_threads=0 / nr=0 / decimate=1 / interlaced=0 / bluray_compat=0 / constrained_intra=0 / bframes=3 / b_pyramid=2 / b_adapt=2 / b_bias=0 / direct=3 / weightb=1 / open_gop=0 / weightp=2 / keyint=250 / keyint_min=23 / scenecut=40 / intra_refresh=0 / rc_lookahead=50 / rc=crf / mbtree=1 / crf=19.0 / qcomp=0.60 / qpmin=0 / qpmax=69 / qpstep=4 / ip_ratio=1.40 / aq=1:1.00
Language : English
Encoded date : UTC 2017-11-21 16:58:22
Tagged date : UTC 2017-11-21 16:58:22

Audio
ID : 2
Format : AAC
Format/Info : Advanced Audio Codec
Format profile : LC
Codec ID : 40
Duration : 42 min 41 s
Duration_LastFrame : -11 ms
Bit rate mode : Constant
Bit rate : 128 kb/s
Channel(s) : 2 channels
Channel positions : Front: L R
Sampling rate : 48.0 kHz
Frame rate : 46.875 FPS (1024 spf)
Compression mode : Lossy
Stream size : 39.1 MiB (15%)
Language : English
Default : Yes
Alternate group : 1
Encoded date : UTC 2017-11-21 16:58:22
Tagged date : UTC 2017-11-21 16:58:22

General
Big.Hero.6.The.Series.S01E01E02.Baymax.Returns.720p.WEB-DL.DD5.1.H264-iT00NZ\Big.Hero.6.The.Series.S01E01E02.Baymax.Returns.720p.WEB-DL.DD5.1.H264-iT00NZ.mkv
Format : Matroska
Format version : Version 4 / Version 2
File size : 1.31 GiB
Duration : 42 min 41 s
Overall bit rate : 4 382 kb/s
Encoded date : UTC 2017-11-21 13:06:22
Writing application : mkvmerge v12.0.0 ('Trust / Lust') 64bit
Writing library : libebml v1.3.4 + libmatroska v1.4.5
Cover : Yes
Attachments : small_cover.jpg / cover.jpg / cover_land.jpg / small_cover_land.jpg

Video
ID : 1
Format : AVC
Format/Info : Advanced Video Codec
Format profile : High@L3.1
Format settings, CABAC : No
Format settings, ReFrames : 2 frames
Codec ID : V_MPEG4/ISO/AVC
Duration : 42 min 41 s
Bit rate : 3 996 kb/s
Width : 1 280 pixels
Height : 720 pixels
Display aspect ratio : 16:9
Frame rate mode : Constant
Frame rate : 23.976 (23976/1000) FPS
Color space : YUV
Chroma subsampling : 4:2:0
Bit depth : 8 bits
Scan type : Progressive
Bits/(Pixel*Frame) : 0.181
Stream size : 1.19 GiB (91%)
Language : English
Default : Yes
Forced : No
Color range : Limited
Color primaries : BT.709
Transfer characteristics : BT.709
Matrix coefficients : BT.709

Audio
ID : 2
Format : AC-3
Format/Info : Audio Coding 3
Mode extension : CM (complete main)
Format settings, Endianness : Big
Codec ID : A_AC3
Duration : 42 min 41 s
Bit rate mode : Constant
Bit rate : 384 kb/s
Channel(s) : 6 channels
Channel positions : Front: L C R, Side: L R, LFE
Sampling rate : 48.0 kHz
Frame rate : 31.250 FPS (1536 spf)
Bit depth : 16 bits
Compression mode : Lossy
Stream size : 117 MiB (9%)
Language : English
Default : Yes
Forced : No

Text
ID : 3
Format : UTF-8
Codec ID : S_TEXT/UTF8
Codec ID/Info : UTF-8 Plain Text
Duration : 42 min 14 s
Bit rate : 83 b/s
Count of elements : 886
Stream size : 25.8 KiB (0%)
Language : English
Default : No
Forced : No

General
Big.Hero.6.The.Series.S01E01E02.Baymax.Returns.1080p.WEB-DL.DD5.1.H264-iT00NZ\Big.Hero.6.The.Series.S01E01E02.Baymax.Returns.1080p.WEB-DL.DD5.1.H264-iT00NZ.mkv
Format : Matroska
Format version : Version 4 / Version 2
File size : 1.64 GiB
Duration : 42 min 41 s
Overall bit rate : 5 485 kb/s
Encoded date : UTC 2017-11-21 13:17:08
Writing application : mkvmerge v12.0.0 ('Trust / Lust') 64bit
Writing library : libebml v1.3.4 + libmatroska v1.4.5
Cover : Yes
Attachments : small_cover.jpg / cover.jpg / cover_land.jpg / small_cover_land.jpg

Video
ID : 1
Format : AVC
Format/Info : Advanced Video Codec
Format profile : High@L4
Format settings, CABAC : Yes
Format settings, ReFrames : 4 frames
Codec ID : V_MPEG4/ISO/AVC
Duration : 42 min 41 s
Bit rate : 5 099 kb/s
Width : 1 920 pixels
Height : 1 080 pixels
Display aspect ratio : 16:9
Frame rate mode : Constant
Frame rate : 23.976 FPS
Color space : YUV
Chroma subsampling : 4:2:0
Bit depth : 8 bits
Scan type : Progressive
Bits/(Pixel*Frame) : 0.103
Stream size : 1.52 GiB (93%)
Language : English
Default : Yes
Forced : No
Color range : Limited
Color primaries : BT.709
Transfer characteristics : BT.709
Matrix coefficients : BT.709

Audio
ID : 2
Format : AC-3
Format/Info : Audio Coding 3
Mode extension : CM (complete main)
Format settings, Endianness : Big
Codec ID : A_AC3
Duration : 42 min 41 s
Bit rate mode : Constant
Bit rate : 384 kb/s
Channel(s) : 6 channels
Channel positions : Front: L C R, Side: L R, LFE
Sampling rate : 48.0 kHz
Frame rate : 31.250 FPS (1536 spf)
Bit depth : 16 bits
Compression mode : Lossy
Stream size : 117 MiB (7%)
Language : English
Default : Yes
Forced : No

Text
ID : 3
Format : UTF-8
Codec ID : S_TEXT/UTF8
Codec ID/Info : UTF-8 Plain Text
Duration : 42 min 14 s
Bit rate : 83 b/s
Count of elements : 886
Stream size : 25.8 KiB (0%)
Default : No
Forced : No


WEB-DL Screenshots

Big Hero 6: The Series S01E01-E02 (2017)

Big Hero 6: The Series S01E01-E02 (2017)

Big Hero 6: The Series S01E01-E02 (2017)


WEB-DL 720p Screenshots

Big Hero 6: The Series S01E01-E02 (2017)

Big Hero 6: The Series S01E01-E02 (2017)

Big Hero 6: The Series S01E01-E02 (2017)


WEB-DL 1080p Screenshots

Big Hero 6: The Series S01E01-E02 (2017)

Big Hero 6: The Series S01E01-E02 (2017)

Big Hero 6: The Series S01E01-E02 (2017)


Come Visit My Blog (•‿•)