Bingo: O Rei das Manhãs / Bingo: The King of the Mornings (2017)

Posted By: RSU75
SD / DVDRip IMDb
Bingo: O Rei das Manhãs / Bingo: The King of the Mornings (2017)

Bingo: O Rei das Manhãs / Bingo: The King of the Mornings (2017)
DVDRip | MKV | AVC 720x364, ~ 1.4 Mbps | 1hr 53mn | 1.47 GB
Portuguese: AC3, 6 ch, 448 kbps
Subtitles: English, Portuguese
Genre: Biography, Comedy, Drama
IMDB Rating: 8.2/10 (2.028 votes)


Director: Daniel Rezende
Writers: Luiz Bolognesi, Fabio Meira (collaborating writer)
Stars: Vladimir Brichta, Leandra Leal, Tainá Müller

Based on a true story, "Bingo" is a film about the man behind the mask. Augusto is an actor hungry for a place in the spotlight, following the footsteps of his mother, a stage artist in the 50's. While starring in soft porn and soap operas he finally gets the chance to conquer the crowds when he is cast as "BINGO", a television host clown. With his irreverent humor and natural talent, the show is a big hit, but a clause on his contract forbids him to reveal his true identity. Augusto becomes an anonymous celebrity. With makeup on, he brings happiness to children across the country but not to his own son Gabriel, that sees his father distancing himself in search of recognition. Filled with irony and humor and an exaggerated pop look from the backstage universe of the Brazilian 80's television, the film tells the incredible and surreal story of a man that whilst looking for his artistic value, finds his personal decay.




General
Unique ID : 183596903404971175724816571212143379944 (0x8A1F7A36A7331C0D91CF0FF90ACDC5E8)
Complete name : M:\Bingo.TheKingOfTheMornings.17.Dr\Bingo.TheKingOfTheMornings.17.Dr.mkv
Format : Matroska
Format version : Version 4 / Version 2
File size : 1.47 GiB
Duration : 1 h 53 min
Overall bit rate : 1 848 kb/s
Movie name : Release RSU75
Encoded date : UTC 2018-01-16 03:59:33
Writing application : mkvmerge v6.6.0 ('The Edge Of The In Between') built on Dec 1 2013 17:55:00
Writing library : libebml v1.3.0 + libmatroska v1.4.1

Video
ID : 1
Format : AVC
Format/Info : Advanced Video Codec
Format profile : High@L3
Format settings : CABAC / 4 Ref Frames
Format settings, CABAC : Yes
Format settings, RefFrames : 4 frames
Codec ID : V_MPEG4/ISO/AVC
Duration : 1 h 53 min
Bit rate : 1 400 kb/s
Width : 720 pixels
Height : 364 pixels
Display aspect ratio : 2.35:1
Frame rate mode : Constant
Frame rate : 23.976 (23976/1000) FPS
Color space : YUV
Chroma subsampling : 4:2:0
Bit depth : 8 bits
Scan type : Progressive
Bits/(Pixel*Frame) : 0.223
Stream size : 1.08 GiB (74%)
Writing library : x264 core 144 r2533 c8a773e
Encoding settings : cabac=1 / ref=4 / deblock=1:0:0 / analyse=0x3:0x113 / me=umh / subme=8 / psy=1 / psy_rd=1.00:0.00 / mixed_ref=1 / me_range=24 / chroma_me=1 / trellis=1 / 8x8dct=1 / cqm=0 / deadzone=21,11 / fast_pskip=1 / chroma_qp_offset=-2 / threads=3 / lookahead_threads=1 / sliced_threads=0 / nr=0 / decimate=1 / interlaced=0 / bluray_compat=0 / constrained_intra=0 / bframes=3 / b_pyramid=0 / b_adapt=2 / b_bias=0 / direct=3 / weightb=1 / open_gop=0 / weightp=2 / keyint=250 / keyint_min=25 / scenecut=40 / intra_refresh=0 / rc_lookahead=40 / rc=abr / mbtree=1 / bitrate=1400 / ratetol=1.0 / qcomp=0.60 / qpmin=10 / qpmax=51 / qpstep=4 / ip_ratio=1.41 / aq=1:1.00
Language : English
Default : Yes
Forced : No

Audio
ID : 2
Format : AC-3
Format/Info : Audio Coding 3
Format settings, Endianness : Big
Codec ID : A_AC3
Duration : 1 h 53 min
Bit rate mode : Constant
Bit rate : 448 kb/s
Channel(s) : 6 channels
Channel positions : Front: L C R, Side: L R, LFE
Sampling rate : 48.0 kHz
Frame rate : 31.250 FPS (1536 SPF)
Bit depth : 16 bits
Compression mode : Lossy
Delay relative to video : -42 ms
Stream size : 365 MiB (24%)
Language : Portuguese
Service kind : Complete Main
Default : Yes
Forced : No

Text #1
ID : 3
Format : VobSub
Muxing mode : zlib
Codec ID : S_VOBSUB
Codec ID/Info : Picture based subtitle format used on DVDs
Language : English
Default : Yes
Forced : No

Text #2
ID : 4
Format : VobSub
Muxing mode : zlib
Codec ID : S_VOBSUB
Codec ID/Info : Picture based subtitle format used on DVDs
Language : Portuguese
Default : No
Forced : No

Menu
00:00:00.000 : en:Chapter 01
00:08:19.365 : en:Chapter 02
00:17:36.305 : en:Chapter 03
00:27:26.811 : en:Chapter 04
00:36:25.600 : en:Chapter 05
00:46:16.023 : en:Chapter 06
00:55:48.294 : en:Chapter 07
01:04:40.493 : en:Chapter 08
01:14:28.130 : en:Chapter 09
01:23:57.399 : en:Chapter 10
01:35:13.240 : en:Chapter 11
01:46:21.458 : en:Chapter 12




Screenshots (click to enlarge to original size):

Bingo: O Rei das Manhãs / Bingo: The King of the Mornings (2017)

Bingo: O Rei das Manhãs / Bingo: The King of the Mornings (2017)

Bingo: O Rei das Manhãs / Bingo: The King of the Mornings (2017)


Bingo: O Rei das Manhãs / Bingo: The King of the Mornings (2017)




–––––––––––––––––––––––––––––––––––––––-
>>> "Comedy" <<< OR >>> "Portuguese" <<<
–––––––––––––––––––––––––––––––––––––––-
>>> Visit Blog RSU75 Here <<<
–––––––––––––––––––––––––––––––––––––––-