La vie d'Adèle - Chapitres 1 et 2 / Blue Is the Warmest Color / Жизнь Адель (2013) [ReUp]

Posted By: RSU75
La vie d'Adèle - Chapitres 1 et 2 / Blue Is the Warmest Color / Жизнь Адель (2013) [ReUp]

La vie d'Adèle - Chapitres 1 et 2 / Blue Is the Warmest Color / Жизнь Адель (2013)
BDRip, Criterion Collection | MKV | AVC 1280x538, ~ 5.8 Mbps | 3h 00mn | 10.3 GB
French: DTS, 6 ch, 1510 kbps; Russian: AC3, 6 ch, 640 kbps
Subtitles: English, Russian
Genre: Drama | Romance
IMDB Rating: 7.9/10 (48,278 votes)


Director: Abdellatif Kechiche
Writers: Abdellatif Kechiche, Ghalia Lacroix
Stars: Léa Seydoux, Adèle Exarchopoulos, Salim Kechiouche

Adèle is a high school student who is beginning to explore herself as a woman. She dates men but finds no satisfaction with them sexually, and is rejected by a female friend who she does desire. She dreams of something more. She meets Emma who is a free spirited girl whom Adèle's friends reject due to her sexuality, and by association most begin to reject Adèle. Her relationship with Emma grows into more than just friends as she is the only person with whom she can express herself openly. Together, Adèle and Emma explore social acceptance, sexuality, and the emotional spectrum of their maturing relationship.

The original edition of "Criterion Collection"



General
Unique ID : 222180950561973418478344076475956642726 (0xA7267E9C87EB21768406071A3FEEC3A6)
Complete name : D:\BlWrmstClr.13.7p.mkv
Format : Matroska
Format version : Version 4 / Version 2
File size : 10.3 GiB
Duration : 3h 0mn
Overall bit rate : 8 163 Kbps
Movie name : Avaxhome.cc
Encoded date : UTC 2014-08-02 01:28:56
Writing application : mkvmerge v6.8.0 ('Theme for Great Cities') 32bit built on Mar 2 2014 21:27:07
Writing library : libebml v1.3.0 + libmatroska v1.4.1

Video
ID : 1
Format : AVC
Format/Info : Advanced Video Codec
Format profile : High@L4.1
Format settings, CABAC : Yes
Format settings, ReFrames : 12 frames
Codec ID : V_MPEG4/ISO/AVC
Duration : 3h 0mn
Bit rate : 5 852 Kbps
Width : 1 280 pixels
Height : 538 pixels
Display aspect ratio : 2.40:1
Frame rate mode : Constant
Frame rate : 23.976 fps
Color space : YUV
Chroma subsampling : 4:2:0
Bit depth : 8 bits
Scan type : Progressive
Bits/(Pixel*Frame) : 0.354
Stream size : 7.36 GiB (72%)
Writing library : x264 core 142 r2389kMod 956c8d8
Encoding settings : cabac=1 / ref=12 / deblock=1:-3:-3 / analyse=0x3:0x133 / me=umh / subme=10 / psy=1 / fade_compensate=0.00 / psy_rd=1.05:0.00 / mixed_ref=1 / me_range=16 / chroma_me=1 / trellis=2 / 8x8dct=1 / cqm=0 / deadzone=21,11 / fast_pskip=0 / chroma_qp_offset=-2 / threads=6 / lookahead_threads=1 / sliced_threads=0 / nr=0 / decimate=0 / interlaced=0 / bluray_compat=0 / constrained_intra=0 / fgo=0 / bframes=6 / b_pyramid=2 / b_adapt=2 / b_bias=0 / direct=3 / weightb=1 / open_gop=0 / weightp=2 / keyint=250 / keyint_min=23 / scenecut=40 / intra_refresh=0 / rc=crf / mbtree=0 / crf=15.0000 / qcomp=0.80 / qpmin=0 / qpmax=69 / qpstep=4 / ip_ratio=1.10 / pb_ratio=1.10 / aq=1:0.80
Language : French
Default : Yes
Forced : No

Audio #1
ID : 2
Format : DTS
Format/Info : Digital Theater Systems
Mode : 16
Format settings, Endianness : Big
Codec ID : A_DTS
Duration : 3h 0mn
Bit rate mode : Constant
Bit rate : 1 509 Kbps
Channel(s) : 6 channels
Channel positions : Front: L C R, Side: L R, LFE
Sampling rate : 48.0 KHz
Bit depth : 24 bits
Compression mode : Lossy
Stream size : 1.90 GiB (18%)
Language : French
Default : Yes
Forced : No

Audio #2
ID : 3
Format : AC-3
Format/Info : Audio Coding 3
Mode extension : CM (complete main)
Format settings, Endianness : Big
Codec ID : A_AC3
Duration : 3h 0mn
Bit rate mode : Constant
Bit rate : 640 Kbps
Channel(s) : 6 channels
Channel positions : Front: L C R, Side: L R, LFE
Sampling rate : 48.0 KHz
Bit depth : 16 bits
Compression mode : Lossy
Stream size : 825 MiB (8%)
Title : Дубляж, Лицензия, BluRay Rus
Language : Russian
Default : No
Forced : No

Text #1
ID : 4
Format : UTF-8
Codec ID : S_TEXT/UTF8
Codec ID/Info : UTF-8 Plain Text
Language : English
Default : No
Forced : No

Text #2
ID : 5
Format : UTF-8
Codec ID : S_TEXT/UTF8
Codec ID/Info : UTF-8 Plain Text
Title : R5
Language : Russian
Default : No
Forced : No

Menu
00:00:00.000 : en: 1. Emptiness
00:08:04.234 : en: 2. Thomas
00:11:50.585 : en: 3. Blue angel
00:19:26.665 : en: 4. Faking everything
00:28:52.981 : en: 5. A great day
00:36:42.909 : en: 6. No gender
00:43:00.578 : en: 7. Curious
00:53:38.048 : en: 8. Defined by actions
01:02:22.656 : en: 9. Phony friends
01:08:34.736 : en:10. Preferences
01:14:54.198 : en:11. First time
01:21:46.652 : en:12. Happiness
01:25:02.597 : en:13. To love
01:31:55.343 : en:14. Eighteen
01:34:52.270 : en:15. Fooling the family
01:41:49.353 : en:16. Teacher
01:44:57.166 : en:17. Out of place
02:03:49.797 : en:18. Feeling alone
02:10:48.924 : en:19. Tensions
02:13:57.196 : en:20. Breakup
02:21:30.691 : en:21. Adrift
02:31:42.719 : en:22. Separate ways
02:46:30.314 : en:23 Old and new



Название: Жизнь Адель
Оригинальное название: La vie d'Adèle - Chapitres 1 et 2
Год выпуска: 2013
Жанр: Драма, мелодрама
Выпущено: Франция, Бельгия, Испания
Режиссер: Абделатиф Кешиш
В ролях: Адель Экзаркопулос, Леа Сейду, Салим Кешьюш, Орельен Рекуан, Кэтрин Сали, Бенжамин Сиксу, Мона Валравенс

О фильме: 15-летняя Адель мечтает о вечной любви и встречает очаровательного парня, который тут же влюбляется в неё. Но неожиданно для неё самой, Адель начинает видеть странные сны с участием загадочной девушки с синими волосами, которую случайно встретила на улице. Юная Адель начинает понимать, что её манят не просто синие волосы, её привлекает сама незнакомка.

Русский перевод: Дублированнное (лицензия)


Screenshots (click to enlarge to original size):

La vie d'Adèle - Chapitres 1 et 2 / Blue Is the Warmest Color / Жизнь Адель (2013) [ReUp]

La vie d'Adèle - Chapitres 1 et 2 / Blue Is the Warmest Color / Жизнь Адель (2013) [ReUp]

La vie d'Adèle - Chapitres 1 et 2 / Blue Is the Warmest Color / Жизнь Адель (2013) [ReUp]

La vie d'Adèle - Chapitres 1 et 2 / Blue Is the Warmest Color / Жизнь Адель (2013) [ReUp]

La vie d'Adèle - Chapitres 1 et 2 / Blue Is the Warmest Color / Жизнь Адель (2013) [ReUp]



–––––––––––––––––––––––––––––––––––––––-
>>> "Criterion Collection" <<<OR >>> "Drama" <<<
–––––––––––––––––––––––––––––––––––––––-
>>> Visit Blog RSU75 Here <<<
–––––––––––––––––––––––––––––––––––––––-