Black Swan (2010)

Posted By: Tavaz
Black Swan (2010)

Black Swan (2010)
MKV | 1280x534 | English | H264 @ 4517 kbps | AC-3 @ 640 kbps | 1 h 48 min | 3.90 GiB
Subtitles: English, Dutch, Italian
Genre: Psychological Thriller, Mistery, Drama

A ballet dancer wins the lead in "Swan Lake" and is perfect for the role of the delicate White Swan - Princess Odette - but slowly loses her mind as she becomes more and more like Odile, the Black Swan.

Black Swan (2010) [BDRip720p Ita-Eng] by Pitt_ml.mkv (3.9 GB)



General
Unique ID : 234149602661402417813542858372597793618 (0xB02792B833AAE41DA26AAB60E33DC352)
Complete name : ./Black Swan (2010) [BDRip720p Ita-Eng] by Pitt_ml.mkv
Format : Matroska
Format version : Version 4 / Version 2
File size : 3.90 GiB
Duration : 1 h 48 min
Overall bit rate mode : Variable
Overall bit rate : 5 160 kb/s
Encoded date : UTC 2015-11-13 00:48:08
Writing application : mkvmerge v8.5.1 ('Where you lead I will follow') 32bit
Writing library : libebml v1.3.3 + libmatroska v1.4.4

Video
ID : 1
Format : AVC
Format/Info : Advanced Video Codec
Format profile : High@L4.1
Format settings : CABAC / 4 Ref Frames
Format settings, CABAC : Yes
Format settings, RefFrames : 4 frames
Codec ID : V_MPEG4/ISO/AVC
Duration : 1 h 48 min
Bit rate mode : Variable
Bit rate : 4 517 kb/s
Maximum bit rate : 40.0 Mb/s
Width : 1 280 pixels
Height : 534 pixels
Display aspect ratio : 2.40:1
Frame rate mode : Constant
Frame rate : 23.976 (24000/1001) FPS
Color space : YUV
Chroma subsampling : 4:2:0
Bit depth : 8 bits
Scan type : Progressive
Bits/(Pixel*Frame) : 0.276
Stream size : 3.41 GiB (88%)
Title : BDRip720p by Pitt@Sk8
Writing library : x264 core 114 r1924 08d04a4
Encoding settings : cabac=1 / ref=5 / deblock=1:0:0 / analyse=0x3:0x133 / me=umh / subme=7 / psy=1 / psy_rd=1.00:0.00 / mixed_ref=1 / me_range=32 / chroma_me=1 / trellis=2 / 8x8dct=1 / cqm=0 / deadzone=21,11 / fast_pskip=1 / chroma_qp_offset=-2 / threads=6 / sliced_threads=0 / slices=4 / nr=0 / decimate=1 / interlaced=0 / constrained_intra=0 / bframes=3 / b_pyramid=1 / b_adapt=2 / b_bias=0 / direct=1 / weightb=1 / open_gop=2 / weightp=2 / keyint=240 / keyint_min=23 / scenecut=40 / intra_refresh=0 / rc_lookahead=40 / rc=2pass / mbtree=1 / bitrate=4517 / ratetol=1.0 / qcomp=0.60 / qpmin=10 / qpmax=51 / qpstep=4 / cplxblur=20.0 / qblur=0.5 / vbv_maxrate=40000 / vbv_bufsize=40000 / nal_hrd=vbr / ip_ratio=1.40 / aq=1:1.00
Default : Yes
Forced : No

Audio
ID : 2
Format : AC-3
Format/Info : Audio Coding 3
Format settings, Endianness : Big
Codec ID : A_AC3
Duration : 1 h 48 min
Bit rate mode : Constant
Bit rate : 640 kb/s
Channel(s) : 6 channels
Channel positions : Front: L C R, Side: L R, LFE
Sampling rate : 48.0 kHz
Frame rate : 31.250 FPS (1536 SPF)
Bit depth : 16 bits
Compression mode : Lossy
Stream size : 495 MiB (12%)
Title : English AC3 5.1 640 kbps - Pitt@Sk8
Language : English
Service kind : Complete Main
Default : No
Forced : No

Text #1
ID : 3
Format : UTF-8
Codec ID : S_TEXT/UTF8
Codec ID/Info : UTF-8 Plain Text
Duration : 1 h 44 min
Bit rate : 29 b/s
Count of elements : 894
Stream size : 22.5 KiB (0%)
Title : Sottotitoli SRT - Italiano
Language : Italian
Default : No
Forced : No

Text #2
ID : 4
Format : VobSub
Muxing mode : zlib
Codec ID : S_VOBSUB
Codec ID/Info : Picture based subtitle format used on DVDs
Duration : 1 h 47 min
Bit rate : 2 368 b/s
Count of elements : 1062
Stream size : 1.82 MiB (0%)
Title : Subtitle - English [deaf]
Language : English
Default : No
Forced : No

Text #3
ID : 5
Format : UTF-8
Codec ID : S_TEXT/UTF8
Codec ID/Info : UTF-8 Plain Text
Duration : 1 h 39 min
Bit rate : 29 b/s
Count of elements : 662
Stream size : 21.5 KiB (0%)
Language : Dutch
Default : Yes
Forced : No

Menu
00:00:00.000 : en:Main Titles
00:06:18.044 : en:"Did You See Beth Today?"
00:12:54.732 : en:"If I Was Only Casting the White Swan, She'd Be Yours."
00:16:35.077 : en:Pirouettes Before the Mirror
00:19:06.687 : en:"Yes, Nina?" - "Do You Have a Minute?"
00:21:53.020 : en:Congratulations to the Wrong Dancer
00:26:33.592 : en:White Swan Practice
00:29:43.865 : en:"You Room with Beth From Now on, So Be Considerate."
00:32:18.812 : en:Bleeding Finger
00:36:05.872 : en:At the Ballet Master's Apartment
00:40:42.607 : en:Bad News About Beth
00:43:52.129 : en:Tears at Home
00:46:39.839 : en:Late Rehearsal
00:49:33.679 : en:Visitor After Rehearsal
00:52:38.489 : en:"Again!" - "Again!"
00:55:47.886 : en:"Has He Tried Anything with You?"
00:58:23.875 : en:Drinks with Lily
01:06:56.095 : en:Back Home with Lily
01:10:15.795 : en:Next Morning
01:13:26.485 : en:Putting Away Childish Things
01:18:28.370 : en:Lights Out in the Practice Room
01:22:49.798 : en:Lights on at Home
01:25:31.793 : en:"After Beth You Really Need Another Controversy?"
01:28:40.565 : en:White Swan
01:32:53.234 : en:"How About I Dance the Black Swan for You?"
01:34:35.044 : en:Black Swan
01:37:47.445 : en:Finale Ultimo
01:42:57.797 : en:Final Credits





Black Swan (2010)


Black Swan (2010)


Black Swan (2010)


Black Swan (2010)


Black Swan (2010)