Blade Runner (1982)

Posted By: Tavaz
1080p (FullHD) / BDRip IMDb
Blade Runner (1982)

Blade Runner (1982)
BDRip | MKV | 1920x800 | English | H265 @ 2208 kbps | AC-3 @ 448 kbps | 2 h 0 min | 2.24 GiB
Subtitles: English
Genre: Sci-Fi, Thriller

In the smog-choked dystopian Los Angeles of 2019, blade runner Rick Deckard is called out of retirement to terminate a quartet of replicants who have escaped to Earth seeking their creator for a way to extend their short life spans.

8e26cd8619284b59ad83aff7b4aa2d0e.mkv (2.2 GB)



General
Unique ID : 194615494597685678310951475249660987642 (0x926994B3D058166F967C8859707688FA)
Complete name : ./8e26cd8619284b59ad83aff7b4aa2d0e.mkv
Format : Matroska
Format version : Version 2
File size : 2.24 GiB
Duration : 2 h 0 min
Overall bit rate : 2 664 kb/s
Movie name : Blade 1982 BluRay 10Bit 1080p DD5.1 H265-d3g
Encoded date : UTC 2018-01-13 16:30:42
Writing application : DVDFab 10.0.7.7
Writing library : libebml v1.3.4 + libmatroska v1.4.5

Video
ID : 1
Format : HEVC
Format/Info : High Efficiency Video Coding
Format profile : Main 10@L4@Main
Codec ID : V_MPEGH/ISO/HEVC
Duration : 2 h 0 min
Bit rate : 2 208 kb/s
Width : 1 920 pixels
Height : 800 pixels
Display aspect ratio : 2.40:1
Frame rate mode : Constant
Frame rate : 23.976 (24000/1001) FPS
Color space : YUV
Chroma subsampling : 4:2:0
Bit depth : 10 bits
Bits/(Pixel*Frame) : 0.060
Stream size : 1.86 GiB (83%)
Default : Yes
Forced : No
Color range : Limited
Color primaries : BT.709
Transfer characteristics : BT.709
Matrix coefficients : BT.709

Audio
ID : 2
Format : AC-3
Format/Info : Audio Coding 3
Format settings, Endianness : Big
Codec ID : A_AC3
Duration : 2 h 0 min
Bit rate mode : Constant
Bit rate : 448 kb/s
Channel(s) : 6 channels
Channel positions : Front: L C R, Side: L R, LFE
Sampling rate : 48.0 kHz
Frame rate : 31.250 FPS (1536 SPF)
Bit depth : 16 bits
Compression mode : Lossy
Stream size : 385 MiB (17%)
Language : English
Service kind : Complete Main
Default : Yes
Forced : No

Text
ID : 3
Format : VobSub
Codec ID : S_VOBSUB
Codec ID/Info : Picture based subtitle format used on DVDs
Duration : 1 h 59 min
Bit rate : 6 097 b/s
Count of elements : 975
Stream size : 5.20 MiB (0%)
Language : English
Default : No
Forced : No

Menu
00:00:00.000 : en:(01)00:00:00:000
00:02:04.332 : en:(02)00:02:04:332
00:03:06.227 : en:(03)00:03:06:227
00:06:49.534 : en:(04)00:06:49:534
00:09:49.547 : en:(05)00:09:49:547
00:11:00.618 : en:(06)00:11:00:618
00:13:47.201 : en:(07)00:13:47:201
00:16:58.058 : en:(08)00:16:58:058
00:19:33.338 : en:(09)00:19:33:338
00:22:50.452 : en:(10)00:22:50:452
00:23:44.798 : en:(11)00:23:44:798
00:27:28.063 : en:(12)00:27:28:063
00:31:04.404 : en:(13)00:31:04:404
00:33:02.814 : en:(14)00:33:02:814
00:35:01.599 : en:(15)00:35:01:599
00:39:19.982 : en:(16)00:39:19:982
00:41:47.254 : en:(17)00:41:47:254
00:44:31.627 : en:(18)00:44:31:627
00:47:35.143 : en:(19)00:47:35:143
00:50:10.966 : en:(20)00:50:10:966
00:54:01.363 : en:(21)00:54:01:363
00:57:10.093 : en:(22)00:57:10:093
00:58:08.485 : en:(23)00:58:08:485
01:01:33.064 : en:(24)01:01:33:064
01:05:21.626 : en:(25)01:05:21:626
01:08:59.552 : en:(26)01:08:59:552
01:12:45.652 : en:(27)01:12:45:652
01:14:50.777 : en:(28)01:14:50:777
01:19:15.459 : en:(29)01:19:15:459
01:22:38.995 : en:(30)01:22:38:995
01:25:00.345 : en:(31)01:25:00:345
01:27:56.980 : en:(32)01:27:56:980
01:31:32.945 : en:(33)01:31:32:945
01:34:34.877 : en:(34)01:34:34:877
01:37:00.439 : en:(35)01:37:00:439
01:40:33.444 : en:(36)01:40:33:444
01:54:02.836 : en:(37)01:54:02:836
01:55:13.489 : en:(38)01:55:13:489





Blade Runner (1982)


Blade Runner (1982)


Blade Runner (1982)


Blade Runner (1982)


Blade Runner (1982)