Blade: Trinity (2004)

Posted By: Tavaz
1080p (FullHD) / BDRip IMDb
Blade: Trinity (2004)

Blade: Trinity (2004)
BDRip | MKV | 1920x816 | English | H265 @ 2312 kbps | AC-3 @ 448 kbps | 2 h 2 min | 2.38 GiB
Subtitles: German, Spanish, English
Genre: Action, Adventure, Horror

For years, Blade has fought against the vampires in the cover of the night. But now, after falling into the crosshairs of the FBI, he is forced out into the daylight, where he is driven to join forces with a clan of human vampire hunters he never knew existed - The Nightstalkers. Together with Abigail and Hannibal, two deftly trained Nightstalkers, Blade follows a trail of blood to the ancient creature that is also hunting him, the original vampire, Dracula.

d89071812e5440388af89d2cd3429038.mkv (2.4 GB)



General
Unique ID : 221987373309796010330355736399783556917 (0xA70136841BDAB0B9A24D14C14BEE7735)
Complete name : ./d89071812e5440388af89d2cd3429038.mkv
Format : Matroska
Format version : Version 2
File size : 2.38 GiB
Duration : 2 h 2 min
Overall bit rate : 2 780 kb/s
Movie name : Blade Trinity 2004 Unrated Cut BluRay 10Bit 1080p DD5.1 H265-d3g
Encoded date : UTC 2018-01-13 16:04:04
Writing application : DVDFab 10.0.7.7
Writing library : libebml v1.3.4 + libmatroska v1.4.5

Video
ID : 1
Format : HEVC
Format/Info : High Efficiency Video Coding
Format profile : Main 10@L4@Main
Codec ID : V_MPEGH/ISO/HEVC
Duration : 2 h 2 min
Bit rate : 2 312 kb/s
Width : 1 920 pixels
Height : 816 pixels
Display aspect ratio : 2.35:1
Frame rate mode : Constant
Frame rate : 23.976 (24000/1001) FPS
Color space : YUV
Chroma subsampling : 4:2:0
Bit depth : 10 bits
Bits/(Pixel*Frame) : 0.062
Stream size : 1.98 GiB (83%)
Default : Yes
Forced : No
Color range : Limited
Color primaries : BT.709
Transfer characteristics : BT.709
Matrix coefficients : BT.709

Audio
ID : 2
Format : AC-3
Format/Info : Audio Coding 3
Format settings, Endianness : Big
Codec ID : A_AC3
Duration : 2 h 2 min
Bit rate mode : Constant
Bit rate : 448 kb/s
Channel(s) : 6 channels
Channel positions : Front: L C R, Side: L R, LFE
Sampling rate : 48.0 kHz
Frame rate : 31.250 FPS (1536 SPF)
Bit depth : 16 bits
Compression mode : Lossy
Stream size : 392 MiB (16%)
Language : English
Service kind : Complete Main
Default : Yes
Forced : No

Text #1
ID : 3
Format : VobSub
Codec ID : S_VOBSUB
Codec ID/Info : Picture based subtitle format used on DVDs
Duration : 2 h 1 min
Bit rate : 6 662 b/s
Count of elements : 1164
Stream size : 5.80 MiB (0%)
Language : English
Default : No
Forced : No

Text #2
ID : 4
Format : VobSub
Codec ID : S_VOBSUB
Codec ID/Info : Picture based subtitle format used on DVDs
Duration : 2 h 1 min
Bit rate : 5 948 b/s
Count of elements : 1035
Stream size : 5.18 MiB (0%)
Language : German
Default : No
Forced : No

Text #3
ID : 5
Format : VobSub
Codec ID : S_VOBSUB
Codec ID/Info : Picture based subtitle format used on DVDs
Duration : 2 h 1 min
Bit rate : 5 631 b/s
Count of elements : 960
Stream size : 4.90 MiB (0%)
Language : Spanish
Default : No
Forced : No

Menu
00:00:00.000 : en:(01)00:00:00:000
00:06:47.407 : en:(02)00:06:47:407
00:12:59.361 : en:(03)00:12:59:361
00:17:16.076 : en:(04)00:17:16:076
00:18:48.418 : en:(05)00:18:48:418
00:22:48.283 : en:(06)00:22:48:283
00:27:05.624 : en:(07)00:27:05:624
00:34:22.894 : en:(08)00:34:22:894
00:41:07.673 : en:(09)00:41:07:673
00:45:40.904 : en:(10)00:45:40:904
00:50:55.886 : en:(11)00:50:55:886
00:54:10.747 : en:(12)00:54:10:747
00:58:08.026 : en:(13)00:58:08:026
01:08:05.164 : en:(14)01:08:05:164
01:17:54.711 : en:(15)01:17:54:711
01:21:59.915 : en:(16)01:21:59:915
01:28:32.056 : en:(17)01:28:32:056
01:33:30.229 : en:(18)01:33:30:229
01:41:31.710 : en:(19)01:41:31:710
01:46:13.158 : en:(20)01:46:13:158
01:50:45.013 : en:(21)01:50:45:013
01:53:51.991 : en:(22)01:53:51:991





Blade: Trinity (2004)


Blade: Trinity (2004)


Blade: Trinity (2004)


Blade: Trinity (2004)