Blade of the Immortal (2017)

Posted By: JohnSmith
Blade of the Immortal (2017)

Blade of the Immortal / Mugen no jûnin (2017)
HDRip | AVI / XviD@1580 kb/s | 720x304 | 2h 21mn | 1.94 GB
Japanese: AC3, 384 kb/s (6 ch) | Subtitles: English
WEB-DL 720p | AVI / XviD@3676 kb/s | 1280x534 | 2h 21mn | 4.01 GB
Japanese: AC3, 384 kb/s (6 ch) | Subtitles: English
WEB-DL 1080p | MKV / AVC@4560 kb/s | 1920x802 | 2h 21mn | 4.88 GB
Japanese: AC3, 384 kb/s (6 ch) | Subtitles: English
Genre: Action | Drama

Manji, a highly skilled samurai, becomes cursed with immortality after a legendary battle. Haunted by the brutal murder of his sister, Manji knows that only fighting evil will regain his soul. He promises to help a young girl named Rin avenge her parents, who were killed by a group of master swordsmen led by ruthless warrior Anotsu. The mission will change Manji in ways he could never imagine - the 100th film by master director Takashi Miike.




General
Unique ID : 179722374530403897628531454264247523045 (0x87354530F7E827D28C86D4A85DC716E5)
Complete name : A:\Blade.of.the.Immortal.2017.JAPANESE.WEB-DL.XviD.AC3-FGT.mkv
Format : Matroska
Format version : Version 4 / Version 2
File size : 1.94 GiB
Duration : 2 h 21 min
Overall bit rate : 1 965 kb/s
Encoded date : UTC 2017-11-10 15:47:47
Writing application : mkvmerge v8.3.0 ('Over the Horizon') 64bit
Writing library : libebml v1.3.1 + libmatroska v1.4.2

Video
ID : 1
Format : MPEG-4 Visual
Format profile : Simple@L5
Format settings, BVOP : No
Format settings, QPel : No
Format settings, GMC : No warppoints
Format settings, Matrix : Default (H.263)
Codec ID : V_MS/VFW/FOURCC / XVID
Codec ID/Hint : XviD
Duration : 2 h 21 min
Bit rate : 1 579 kb/s
Width : 720 pixels
Height : 304 pixels
Display aspect ratio : 2.40:1
Original display aspect rat : 2.40:1
Frame rate mode : Constant
Frame rate : 23.976 FPS
Color space : YUV
Chroma subsampling : 4:2:0
Bit depth : 8 bits
Scan type : Progressive
Compression mode : Lossy
Bits/(Pixel*Frame) : 0.301
Stream size : 1.56 GiB (80%)
Writing library : Lavc58.1.100
Default : Yes
Forced : No

Audio
ID : 2
Format : AC-3
Format/Info : Audio Coding 3
Format settings, Endianness : Big
Codec ID : A_AC3
Duration : 2 h 21 min
Bit rate mode : Constant
Bit rate : 384 kb/s
Channel(s) : 6 channels
Channel positions : Front: L C R, Side: L R, LFE
Sampling rate : 48.0 kHz
Frame rate : 31.250 FPS (1536 spf)
Bit depth : 16 bits
Compression mode : Lossy
Stream size : 388 MiB (20%)
Service kind : Complete Main
Default : Yes
Forced : No

Text
ID : 3
Format : UTF-8
Codec ID : S_TEXT/UTF8
Codec ID/Info : UTF-8 Plain Text
Duration : 2 h 16 min
Bit rate : 23 b/s
Count of elements : 937
Stream size : 23.6 KiB (0%)
Language : English
Default : Yes
Forced : No





General
Unique ID : 172914956528454528931786682258674042148 (0x8216359221F32B4497AFFD12940A4524)
Complete name : A:\Blade.of.the.Immortal.2017.JAPANESE.720p.WEB-DL.XviD.AC3-FGT.mkv
Format : Matroska
Format version : Version 4 / Version 2
File size : 4.01 GiB
Duration : 2 h 21 min
Overall bit rate : 4 062 kb/s
Encoded date : UTC 2017-11-10 15:47:08
Writing application : mkvmerge v8.3.0 ('Over the Horizon') 64bit
Writing library : libebml v1.3.1 + libmatroska v1.4.2

Video
ID : 1
Format : MPEG-4 Visual
Format profile : Simple@L5
Format settings, BVOP : No
Format settings, QPel : No
Format settings, GMC : No warppoints
Format settings, Matrix : Default (H.263)
Codec ID : V_MS/VFW/FOURCC / XVID
Codec ID/Hint : XviD
Duration : 2 h 21 min
Bit rate : 3 676 kb/s
Width : 1 280 pixels
Height : 534 pixels
Display aspect ratio : 2.40:1
Frame rate mode : Constant
Frame rate : 23.976 FPS
Color space : YUV
Chroma subsampling : 4:2:0
Bit depth : 8 bits
Scan type : Progressive
Compression mode : Lossy
Bits/(Pixel*Frame) : 0.224
Stream size : 3.63 GiB (91%)
Writing library : Lavc58.1.100
Default : Yes
Forced : No

Audio
ID : 2
Format : AC-3
Format/Info : Audio Coding 3
Format settings, Endianness : Big
Codec ID : A_AC3
Duration : 2 h 21 min
Bit rate mode : Constant
Bit rate : 384 kb/s
Channel(s) : 6 channels
Channel positions : Front: L C R, Side: L R, LFE
Sampling rate : 48.0 kHz
Frame rate : 31.250 FPS (1536 spf)
Bit depth : 16 bits
Compression mode : Lossy
Stream size : 388 MiB (9%)
Service kind : Complete Main
Default : Yes
Forced : No

Text
ID : 3
Format : UTF-8
Codec ID : S_TEXT/UTF8
Codec ID/Info : UTF-8 Plain Text
Duration : 2 h 16 min
Bit rate : 23 b/s
Count of elements : 937
Stream size : 23.6 KiB (0%)
Language : English
Default : Yes
Forced : No





General
Unique ID : 199047437554844446687814904131438936512 (0x95BF245C57CEC12A9699CA379C8681C0)
Complete name : A:\Blade.of.the.Immortal.2017.JAPANESE.1080p.WEB-DL.DD5.1.H264-FGT.mkv
Format : Matroska
Format version : Version 4 / Version 2
File size : 4.88 GiB
Duration : 2 h 21 min
Overall bit rate : 4 944 kb/s
Encoded date : UTC 2017-11-10 15:45:43
Writing application : mkvmerge v8.3.0 ('Over the Horizon') 64bit
Writing library : libebml v1.3.1 + libmatroska v1.4.2

Video
ID : 1
Format : AVC
Format/Info : Advanced Video Codec
Format profile : High@L4
Format settings, CABAC : Yes
Format settings, ReFrames : 5 frames
Codec ID : V_MPEG4/ISO/AVC
Duration : 2 h 21 min
Bit rate : 4 558 kb/s
Width : 1 920 pixels
Height : 802 pixels
Display aspect ratio : 2.40:1
Frame rate mode : Constant
Frame rate : 23.976 (23976/1000) FPS
Color space : YUV
Chroma subsampling : 4:2:0
Bit depth : 8 bits
Scan type : Progressive
Bits/(Pixel*Frame) : 0.123
Stream size : 4.50 GiB (92%)
Language : English
Default : Yes
Forced : No
Color range : Limited
Color primaries : BT.709
Transfer characteristics : BT.709
Matrix coefficients : BT.709

Audio
ID : 2
Format : AC-3
Format/Info : Audio Coding 3
Format settings, Endianness : Big
Codec ID : A_AC3
Duration : 2 h 21 min
Bit rate mode : Constant
Bit rate : 384 kb/s
Channel(s) : 6 channels
Channel positions : Front: L C R, Side: L R, LFE
Sampling rate : 48.0 kHz
Frame rate : 31.250 FPS (1536 spf)
Bit depth : 16 bits
Compression mode : Lossy
Delay relative to video : -42 ms
Stream size : 388 MiB (8%)
Language : Japanese
Service kind : Complete Main
Default : Yes
Forced : No

Text
ID : 3
Format : UTF-8
Codec ID : S_TEXT/UTF8
Codec ID/Info : UTF-8 Plain Text
Duration : 2 h 16 min
Bit rate : 23 b/s
Count of elements : 937
Stream size : 23.6 KiB (0%)
Language : English
Default : Yes
Forced : No

Menu
00:00:00.000 : en:1
00:08:49.654 : en:2
00:17:49.652 : en:3
00:25:27.735 : en:4
00:35:00.808 : en:5
00:42:45.314 : en:6
00:54:11.500 : en:7
01:01:44.744 : en:8
01:07:36.303 : en:9
01:18:18.611 : en:10
01:27:24.156 : en:11
01:36:39.169 : en:12
01:45:33.578 : en:13
01:49:45.037 : en:14
02:02:09.072 : en:15
02:08:03.760 : en:16




Screenshots HDRip

Blade of the Immortal (2017)

Blade of the Immortal (2017)

Blade of the Immortal (2017)


Screenshots WEB-DL 720p

Blade of the Immortal (2017)

Blade of the Immortal (2017)

Blade of the Immortal (2017)


Screenshots WEB-DL 1080p

Blade of the Immortal (2017)

Blade of the Immortal (2017)

Blade of the Immortal (2017)