Bleeding Steel (2017)

Posted By: Tavaz
1080p (FullHD) / BDRip IMDb
Bleeding Steel (2017)

Bleeding Steel (2017)
BDRip | MKV | 1920x804 | English | H265 @ 2601 kbps | AC-3 @ 448 kbps | 1 h 49 min | 2.34 GiB
Genre: Action, Science Fiction, Thriller

Jackie Chan stars as a hardened special forces agent who fights to protect a young woman from a sinister criminal gang. At the same time, he feels a special connection to the young woman, like they met in a different life.

cf3787fd768e49a6bce8a848c217f6e2.mkv (2.3 GB)
cf3787fd768e49a6bce8a848c217f6e2(1).mkv (2.3 GB)



General
Complete name : ./cf3787fd768e49a6bce8a848c217f6e2.mkv
Format : Matroska
Format version : Version 2
File size : 2.34 GiB
Duration : 1 h 49 min
Overall bit rate : 3 051 kb/s
Encoded date : UTC 2018-05-02 06:11:35
Writing application : DVDFab 10.0.9.0
Writing library : libebml v1.3.4 + libmatroska v1.4.5

Video
ID : 1
Format : HEVC
Format/Info : High Efficiency Video Coding
Format profile : Main 10@L4@Main
Codec ID : V_MPEGH/ISO/HEVC
Duration : 1 h 49 min
Bit rate : 2 601 kb/s
Width : 1 920 pixels
Height : 804 pixels
Display aspect ratio : 2.40:1
Frame rate mode : Constant
Frame rate : 23.976 (24000/1001) FPS
Color space : YUV
Chroma subsampling : 4:2:0
Bit depth : 10 bits
Bits/(Pixel*Frame) : 0.070
Stream size : 1.99 GiB (85%)
Default : Yes
Forced : No
Color range : Limited
Color primaries : BT.709
Transfer characteristics : BT.709
Matrix coefficients : BT.709

Audio
ID : 2
Format : AC-3
Format/Info : Audio Coding 3
Format settings, Endianness : Big
Codec ID : A_AC3
Duration : 1 h 49 min
Bit rate mode : Constant
Bit rate : 448 kb/s
Channel(s) : 6 channels
Channel positions : Front: L C R, Side: L R, LFE
Sampling rate : 48.0 kHz
Frame rate : 31.250 FPS (1536 SPF)
Bit depth : 16 bits
Compression mode : Lossy
Stream size : 351 MiB (15%)
Language : English
Service kind : Complete Main
Default : Yes
Forced : No

Menu
00:00:00.000 : en:(01)00:00:00:000
00:07:42.879 : en:(02)00:07:42:879
00:18:16.178 : en:(03)00:18:16:178
00:26:08.692 : en:(04)00:26:08:692
00:35:25.123 : en:(05)00:35:25:123
00:45:17.631 : en:(06)00:45:17:631
00:51:54.319 : en:(07)00:51:54:319
01:00:07.937 : en:(08)01:00:07:937
01:09:18.737 : en:(09)01:09:18:737
01:17:45.369 : en:(10)01:17:45:369
01:26:30.101 : en:(11)01:26:30:101
01:39:26.460 : en:(12)01:39:26:460





Bleeding Steel (2017)


Bleeding Steel (2017)


Bleeding Steel (2017)


Bleeding Steel (2017)


Bleeding Steel (2017)