Bleeding Steel (2017)

Posted By: Without
SD / BDRip IMDb
Bleeding Steel (2017)

Bleeding Steel (2017)
BRRip | MKV | 720x304 | AVC@1700 kb/s | English AC3@448 kb/s | 6 channels | 1 h 50 min | 1.64 GB
Genre: Action, Sci-Fi, Thriller

A special force agent is assigned to protect a scientist and his creation from a sinister gang.



General
Bleeding.Steel.2017.BRRip.AC3.X264-CMRG.mkv
Format : Matroska
Format version : Version 4 / Version 2
File size : 1.64 GiB
Duration : 1 h 50 min
Overall bit rate : 2 127 kb/s
Encoded date : UTC 2018-05-01 09:01:40
Writing application : mkvmerge v15.0.0 ('Duel with the Devil') 64-bit
Writing library : libebml v1.3.5 + libmatroska v1.4.5
Writing frontend : StaxRip v1.7.0.0

Video
ID : 1
Format : AVC
Format/Info : Advanced Video Codec
Format profile : High@L4.1
Format settings : CABAC / 5 Ref Frames
Format settings, CABAC : Yes
Format settings, RefFrames : 5 frames
Codec ID : V_MPEG4/ISO/AVC
Duration : 1 h 50 min
Bit rate : 1 700 kb/s
Width : 720 pixels
Height : 304 pixels
Display aspect ratio : 2.35:1
Frame rate mode : Constant
Frame rate : 23.976 (24000/1001) FPS
Color space : YUV
Chroma subsampling : 4:2:0
Bit depth : 8 bits
Scan type : Progressive
Bits/(Pixel*Frame) : 0.324
Stream size : 1.29 GiB (79%)
Writing library : x264 core 152 r2851 ba24899
Encoding settings : cabac=1 / ref=5 / deblock=1:-3:-3 / analyse=0x3:0x113 / me=hex / subme=7 / psy=1 / psy_rd=1.00:0.00 / mixed_ref=1 / me_range=16 / chroma_me=1 / trellis=2 / 8x8dct=1 / cqm=0 / deadzone=21,11 / fast_pskip=1 / chroma_qp_offset=-2 / threads=90 / lookahead_threads=2 / sliced_threads=0 / nr=0 / decimate=1 / interlaced=0 / bluray_compat=0 / constrained_intra=0 / bframes=5 / b_pyramid=2 / b_adapt=2 / b_bias=0 / direct=1 / weightb=1 / open_gop=0 / weightp=2 / keyint=250 / keyint_min=23 / scenecut=40 / intra_refresh=0 / rc_lookahead=40 / rc=abr / mbtree=1 / bitrate=1700 / ratetol=1.0 / qcomp=0.60 / qpmin=0 / qpmax=69 / qpstep=4 / ip_ratio=1.40 / aq=1:1.00
Default : Yes
Forced : No

Audio
ID : 2
Format : AC-3
Format/Info : Audio Coding 3
Codec ID : A_AC3
Duration : 1 h 50 min
Bit rate mode : Constant
Bit rate : 448 kb/s
Channel(s) : 6 channels
Channel positions : Front: L C R, Side: L R, LFE
Sampling rate : 48.0 kHz
Frame rate : 31.250 FPS (1536 SPF)
Bit depth : 16 bits
Compression mode : Lossy
Stream size : 353 MiB (21%)
Language : English
Service kind : Complete Main
Default : No
Forced : No

Menu
00:00:00.000 : en:00:00:00.000
00:07:42.879 : en:00:07:42.879
00:18:16.178 : en:00:18:16.178
00:26:08.692 : en:00:26:08.692
00:35:25.123 : en:00:35:25.123
00:45:17.632 : en:00:45:17.632
00:51:54.320 : en:00:51:54.320
01:00:07.938 : en:01:00:07.938
01:09:18.738 : en:01:09:18.738
01:17:45.369 : en:01:17:45.369
01:26:30.102 : en:01:26:30.102
01:39:26.460 : en:01:39:26.460


BRRip Screenshots

Bleeding Steel (2017)

Bleeding Steel (2017)

Bleeding Steel (2017)

Bleeding Steel (2017)


Come Visit My Blog (•‿•)