Subcategories

Blood Drive S01E11 (2017)

Posted By: JohnSmith
Blood Drive S01E11 (2017)

Blood Drive S01E11 (2017)
WEB-DL 720p | MKV / AVC@4040 kb/s | 1280x720 | 43mn | 1.33 GB | English: AC3, 384 kb/s (6 ch)
Genre: Action | Adventure | Comedy | Horror | Sci-Fi | Thriller

Set in a near-dystopian future, the series features a former cop, who is forced to take part in a death race in which cars run on human blood as fuel.




General
Unique ID : 177648437126076598425898455863995512913 (0x85A5D82EC20C10608BF8B2154695B851)
Complete name : A:\Blood.Drive.S01E11.720p.WEB-DL.mkv
Format : Matroska
Format version : Version 4 / Version 2
File size : 1.33 GiB
Duration : 43 min 6 s
Overall bit rate : 4 423 kb/s
Encoded date : UTC 2017-08-24 07:33:10
Writing application : mkvmerge v8.3.0 ('Over the Horizon') 64bit
Writing library : libebml v1.3.1 + libmatroska v1.4.2

Video
ID : 1
Format : AVC
Format/Info : Advanced Video Codec
Format profile : High@L3.1
Format settings, CABAC : No
Format settings, ReFrames : 2 frames
Codec ID : V_MPEG4/ISO/AVC
Duration : 43 min 5 s
Bit rate : 4 037 kb/s
Width : 1 280 pixels
Height : 720 pixels
Display aspect ratio : 16:9
Frame rate mode : Constant
Frame rate : 23.976 (23976/1000) FPS
Color space : YUV
Chroma subsampling : 4:2:0
Bit depth : 8 bits
Scan type : Progressive
Bits/(Pixel*Frame) : 0.183
Stream size : 1.22 GiB (91%)
Language : English
Default : Yes
Forced : No
Color range : Limited
Color primaries : BT.709
Transfer characteristics : BT.709
Matrix coefficients : BT.709

Audio
ID : 2
Format : AC-3
Format/Info : Audio Coding 3
Format settings, Endianness : Big
Codec ID : A_AC3
Duration : 43 min 6 s
Bit rate mode : Constant
Bit rate : 384 kb/s
Channel(s) : 6 channels
Channel positions : Front: L C R, Side: L R, LFE
Sampling rate : 48.0 kHz
Frame rate : 31.250 FPS (1536 spf)
Bit depth : 16 bits
Compression mode : Lossy
Stream size : 118 MiB (9%)
Language : English
Service kind : Complete Main
Default : Yes
Forced : No





Screenshots

Blood Drive S01E11 (2017)

Blood Drive S01E11 (2017)

Blood Drive S01E11 (2017)