Blue Caprice (2013)

Posted By: vivid23
Blue Caprice (2013)

Blue Caprice (2013)
Bluray-rip 720p | 1280x536 | MKV/x264 @ 5203 Kbps | 93mn | Audio: English DTS 1510 kbps, 6 channels | Subs: None | 4.37 GB
Genre: Biography | Crime | Drama

An abandoned boy is lured to America and drawn into the shadow of a dangerous father figure. Inspired by the real life events that led to the 2002 Beltway sniper attacks.

More info

Video
ID : 1
Format : AVC
Format/Info : Advanced Video Codec
Format profile : High@L4.1
Format settings, CABAC : Yes
Format settings, ReFrames : 5 frames
Format settings, GOP : M=4, N=16
Codec ID : V_MPEG4/ISO/AVC
Duration : 1h 33mn
Bit rate : 5 203 Kbps
Width : 1 280 pixels
Height : 536 pixels
Display aspect ratio : 2.35:1
Frame rate : 23.976 fps
Color space : YUV
Chroma subsampling : 4:2:0
Bit depth : 8 bits
Scan type : Progressive
Bits/(Pixel*Frame) : 0.316
Stream size : 3.30 GiB (76%)
Writing library : x264 core 140 r2377 1ca7bb9
Encoding settings : cabac=1 / ref=5 / deblock=1:0:0 / analyse=0x3:0x133 / me=umh / subme=7 / psy=1 / psy_rd=1.00:0.00 / mixed_ref=1 / me_range=16 / chroma_me=1 / trellis=1 / 8x8dct=1 / cqm=0 / deadzone=21,11 / fast_pskip=0 / chroma_qp_offset=-2 / threads=12 / lookahead_threads=2 / sliced_threads=0 / nr=0 / decimate=1 / interlaced=0 / bluray_compat=0 / constrained_intra=0 / bframes=3 / b_pyramid=2 / b_adapt=1 / b_bias=0 / direct=1 / weightb=1 / open_gop=0 / weightp=2 / keyint=250 / keyint_min=23 / scenecut=40 / intra_refresh=0 / rc_lookahead=40 / rc=2pass / mbtree=1 / bitrate=5203 / ratetol=1.0 / qcomp=0.60 / qpmin=0 / qpmax=69 / qpstep=4 / cplxblur=20.0 / qblur=0.5 / ip_ratio=1.40 / aq=1:1.00
Language : English

Audio
ID : 2
Format : DTS
Format/Info : Digital Theater Systems
Codec ID : A_DTS
Duration : 1h 33mn
Bit rate mode : Constant
Bit rate : 1 510 Kbps
Channel(s) : 6 channels
Channel positions : Front: L C R, Side: L R, LFE
Sampling rate : 48.0 KHz
Bit depth : 24 bits
Compression mode : Lossy
Stream size : 1 006 MiB (23%)
Language : English

Menu
00:00:00.000 : en:00:00:00.000
00:09:09.924 : en:00:09:09.924
00:16:01.502 : en:00:16:01.502
00:23:40.753 : en:00:23:40.753
00:31:31.473 : en:00:31:31.473
00:40:21.544 : en:00:40:21.544
00:48:58.394 : en:00:48:58.394
00:55:19.024 : en:00:55:19.024
01:05:02.107 : en:01:05:02.107
01:11:28.743 : en:01:11:28.743
01:20:00.879 : en:01:20:00.879
01:29:59.686 : en:01:29:59.686


Blue Caprice (2013)

Blue Caprice (2013)