Boonie Bears III (2016)

Posted By: Tavaz
720p (HD) / HDTV IMDb
Boonie Bears III (2016)

Boonie Bears III (2016)
HDTV | MKV | 1280x528 | English | H264 @ 4000 kbps | AC-3 @ 192 kbps | 1 h 39 min | 2.90 GiB
Genre: Animation

A story of friends old and new, of being lost but most importantly being found; The Big Top Secret follows Briar as he is whisked away from the home he knows and plunged head first into the ranks of a traveling circus. The struggling circus, led by Hugo the Gorilla, is on its last leg and in desperate need of a boost. Frustrated with his brother, Bramble, and the rest of his forest friends, Briar finds a new and welcoming home among Wolfgang's Big Top. Briar brings life back to the circus and quickly finds happiness in his new life filled with new friends and fame. While rising to the top has its benefits, it also comes with a price. After searching high and low, Bramble and his forest friends are thrilled to have found their lost Briar, but Briar is not so sure that he wants to be found. He doesn't want to leave his perfect new life at the big top but even the most perfect-seeming things have dark sides. Through trials and chases and trains, all of the animals learn what it is to belong and the true meaning of family.

dbfc1891c9bf4a4ea1c7f1a9077ad9de.mkv (2.9 GB)



General
Unique ID : 178558176263347676183395059664114553937 (0x86550DC8FCCB6AC0AA9D203BFA9E1451)
Complete name : ./dbfc1891c9bf4a4ea1c7f1a9077ad9de.mkv
Format : Matroska
Format version : Version 4 / Version 2
File size : 2.90 GiB
Duration : 1 h 39 min
Overall bit rate : 4 194 kb/s
Encoded date : UTC 2018-02-25 12:09:14
Writing application : mkvmerge v7.1.0 ('Good Love') 32bit built on Jul 27 2014 12:59:18
Writing library : libebml v1.3.0 + libmatroska v1.4.1

Video
ID : 1
Format : AVC
Format/Info : Advanced Video Codec
Format profile : High@L4.1
Format settings : CABAC / 5 Ref Frames
Format settings, CABAC : Yes
Format settings, RefFrames : 5 frames
Codec ID : V_MPEG4/ISO/AVC
Duration : 1 h 39 min
Bit rate : 4 000 kb/s
Width : 1 280 pixels
Height : 528 pixels
Display aspect ratio : 2.40:1
Frame rate mode : Constant
Frame rate : 24.000 FPS
Color space : YUV
Chroma subsampling : 4:2:0
Bit depth : 8 bits
Scan type : Progressive
Bits/(Pixel*Frame) : 0.247
Stream size : 2.77 GiB (95%)
Writing library : x264 core 152 r2851 ba24899
Encoding settings : cabac=1 / ref=5 / deblock=1:0:0 / analyse=0x3:0x113 / me=hex / subme=8 / psy=1 / psy_rd=1.00:0.00 / mixed_ref=1 / me_range=16 / chroma_me=1 / trellis=2 / 8x8dct=1 / cqm=0 / deadzone=21,11 / fast_pskip=1 / chroma_qp_offset=-2 / threads=16 / lookahead_threads=2 / sliced_threads=0 / nr=0 / decimate=1 / interlaced=0 / bluray_compat=0 / constrained_intra=0 / bframes=3 / b_pyramid=2 / b_adapt=1 / b_bias=0 / direct=3 / weightb=1 / open_gop=0 / weightp=2 / keyint=250 / keyint_min=24 / scenecut=40 / intra_refresh=0 / rc_lookahead=50 / rc=2pass / mbtree=1 / bitrate=4000 / ratetol=1.0 / qcomp=0.60 / qpmin=0 / qpmax=69 / qpstep=4 / cplxblur=20.0 / qblur=0.5 / ip_ratio=1.40 / aq=1:1.00
Default : Yes
Forced : No

Audio
ID : 2
Format : AC-3
Format/Info : Audio Coding 3
Format settings, Endianness : Big
Codec ID : A_AC3
Duration : 1 h 38 min
Bit rate mode : Constant
Bit rate : 192 kb/s
Channel(s) : 2 channels
Channel positions : Front: L R
Sampling rate : 48.0 kHz
Frame rate : 31.250 FPS (1536 SPF)
Bit depth : 16 bits
Compression mode : Lossy
Delay relative to video : 24 ms
Stream size : 136 MiB (5%)
Language : English
Service kind : Complete Main
Default : No
Forced : No





Boonie Bears III (2016)


Boonie Bears III (2016)


Boonie Bears III (2016)


Boonie Bears III (2016)


Boonie Bears III (2016)