Brain on Fire (2017)

Posted By: Tavaz
720p (HD) / BDRip IMDb
Brain on Fire (2017)

Brain on Fire (2017)
BDRip | MKV | 1280x720 | English | H264 @ 2560 kbps | AC-3 @ 640 kbps | 1 h 28 min | 1.99 GiB
Subtitles: English
Genre: Drama

A look at a young woman's rapid descent into insanity.

fb42ad4c80294b29b2a488cf7e130a8a.mkv (2.0 GB)



General
Unique ID : 195128798831365416690429762270824126054 (0x92CC708E17C15B28D4CD672C36DE5666)
Complete name : ./fb42ad4c80294b29b2a488cf7e130a8a.mkv
Format : Matroska
Format version : Version 4 / Version 2
File size : 1.99 GiB
Duration : 1 h 28 min
Overall bit rate : 3 200 kb/s
Movie name : Brain.on.Fire.2016.720p.BluRay.x264-x0r
Encoded date : UTC 2018-02-15 13:41:09
Writing application : mkvmerge v7.7.0 ('Six Voices') 64bit built on Mar 1 2015 01:50:05
Writing library : libebml v1.3.1 + libmatroska v1.4.2

Video
ID : 1
Format : AVC
Format/Info : Advanced Video Codec
Format profile : High@L4
Format settings : CABAC / 8 Ref Frames
Format settings, CABAC : Yes
Format settings, RefFrames : 8 frames
Codec ID : V_MPEG4/ISO/AVC
Duration : 1 h 28 min
Bit rate : 2 560 kb/s
Width : 1 280 pixels
Height : 720 pixels
Display aspect ratio : 16:9
Frame rate mode : Constant
Frame rate : 23.976 (24000/1001) FPS
Color space : YUV
Chroma subsampling : 4:2:0
Bit depth : 8 bits
Scan type : Progressive
Bits/(Pixel*Frame) : 0.116
Stream size : 1.59 GiB (80%)
Writing library : x264 core 142 r2389 956c8d8
Encoding settings : cabac=1 / ref=8 / deblock=1:-2:-2 / analyse=0x3:0x133 / me=umh / subme=9 / psy=1 / psy_rd=1.00:0.25 / mixed_ref=1 / me_range=48 / chroma_me=1 / trellis=2 / 8x8dct=1 / cqm=0 / deadzone=21,11 / fast_pskip=1 / chroma_qp_offset=-4 / threads=12 / lookahead_threads=1 / sliced_threads=0 / nr=0 / decimate=1 / interlaced=0 / bluray_compat=0 / constrained_intra=0 / bframes=4 / b_pyramid=2 / b_adapt=2 / b_bias=0 / direct=3 / weightb=1 / open_gop=0 / weightp=2 / keyint=240 / keyint_min=24 / scenecut=40 / intra_refresh=0 / rc_lookahead=40 / rc=2pass / mbtree=1 / bitrate=2560 / ratetol=1.0 / qcomp=0.60 / qpmin=0 / qpmax=69 / qpstep=4 / cplxblur=20.0 / qblur=0.5 / vbv_maxrate=20000 / vbv_bufsize=25000 / nal_hrd=none / filler=0 / ip_ratio=1.40 / aq=1:1.00
Language : English
Default : Yes
Forced : No
Color range : Limited
Color primaries : BT.709
Transfer characteristics : BT.709
Matrix coefficients : BT.709

Audio
ID : 2
Format : AC-3
Format/Info : Audio Coding 3
Format settings, Endianness : Big
Codec ID : A_AC3
Duration : 1 h 28 min
Bit rate mode : Constant
Bit rate : 640 kb/s
Channel(s) : 6 channels
Channel positions : Front: L C R, Side: L R, LFE
Sampling rate : 48.0 kHz
Frame rate : 31.250 FPS (1536 SPF)
Bit depth : 16 bits
Compression mode : Lossy
Stream size : 407 MiB (20%)
Title : Surround
Language : English
Service kind : Complete Main
Default : No
Forced : No

Text
ID : 3
Format : UTF-8
Codec ID : S_TEXT/UTF8
Codec ID/Info : UTF-8 Plain Text
Duration : 1 h 23 min
Bit rate : 61 b/s
Count of elements : 1515
Stream size : 37.6 KiB (0%)
Language : English
Default : Yes
Forced : No

Menu
00:00:00.000 : :Chapter 1
00:07:17.228 : :Chapter 2
00:14:12.602 : :Chapter 3
00:20:52.710 : :Chapter 4
00:30:02.592 : :Chapter 5
00:38:05.492 : :Chapter 6
00:51:21.287 : :Chapter 7
00:58:53.989 : :Chapter 8
01:06:15.472 : :Chapter 9
01:12:22.380 : :Chapter 10
01:17:56.422 : :Chapter 11
01:23:35.385 : :Chapter 12





Brain on Fire (2017)


Brain on Fire (2017)


Brain on Fire (2017)


Brain on Fire (2017)


Brain on Fire (2017)