Tags
Language
Tags

Breakdown (1997)

Posted By: Without
2160p (4k UHD) / WEBRip IMDb
Breakdown (1997)

Breakdown (1997)
WEBRip 2160p | MKV | 1 h 33 min | 10.6 GB | 3840x1636 | HEVC@15.8 Mb/s
English AC3@448 kb/s, 6 ch
Subs: English, Français
Genre: Crime, Drama, Mystery, Thriller

A man searches for his missing wife after his car breaks down in the middle of the desert.



General
Breakdown.1997.2160p.HDR.WEBRip.DD.5.1.x265-BLASPHEMY.mkv
Format : Matroska
Format version : Version 4 / Version 2
File size : 10.6 GB
Duration : 1 h 33 min
Overall bit rate : 16.3 Mb/s
Encoded date : UTC 2020-10-27 23:34:45
Writing application : mkvmerge v51.0.0 ('I Wish') 64-bit
Writing library : libebml v1.4.0 + libmatroska v1.6.2

Video
ID : 1
Format : HEVC
Format/Info : High Efficiency Video Coding
Format profile : Main 10@L5.1@High
Codec ID : V_MPEGH/ISO/HEVC
Duration : 1 h 33 min
Bit rate : 15.8 Mb/s
Width : 3840 pixels
Height : 1636 pixels
Display aspect ratio : 2.35:1
Frame rate mode : Constant
Frame rate : 23.976 (24000/1001) FPS
Color space : YUV
Chroma subsampling : 4:2:0 (Type 2)
Bit depth : 10 bits
Bits/(Pixel*Frame) : 0.105
Stream size : 10.3 GB (97%)
Writing library : x265 3.4+6-g73f96ff39:[Windows][GCC 11.0.0][64 bit] 10bit
Encoding settings : cpuid=1111039 / frame-threads=4 / numa-pools=28 / wpp / no-pmode / no-pme / no-psnr / no-ssim / log-level=2 / input-csp=1 / input-res=3840x1636 / interlace=0 / total-frames=98937 / level-idc=51 / high-tier=1 / uhd-bd=0 / ref=5 / no-allow-non-conformance / repeat-headers / annexb / aud / hrd / info / hash=0 / no-temporal-layers / no-open-gop / min-keyint=23 / keyint=250 / gop-lookahead=0 / bframes=8 / b-adapt=2 / b-pyramid / bframe-bias=0 / rc-lookahead=40 / lookahead-slices=0 / scenecut=40 / hist-scenecut=0 / radl=0 / no-splice / no-intra-refresh / ctu=64 / min-cu-size=8 / rect / amp / max-tu-size=32 / tu-inter-depth=4 / tu-intra-depth=4 / limit-tu=0 / rdoq-level=2 / dynamic-rd=0.00 / no-ssim-rd / signhide / no-tskip / nr-intra=0 / nr-inter=0 / no-constrained-intra / no-strong-intra-smoothing / max-merge=4 / limit-refs=1 / limit-modes / me=3 / subme=4 / merange=57 / temporal-mvp / no-frame-dup / no-hme / weightp / weightb / no-analyze-src-pics / deblock=-2:-2 / no-sao / no-sao-non-deblock / rd=6 / selective-sao=0 / no-early-skip / rskip / no-fast-intra / no-tskip-fast / no-cu-lossless / b-intra / no-splitrd-skip / rdpenalty=0 / psy-rd=2.00 / psy-rdoq=1.00 / no-rd-refine / no-lossless / cbqpoffs=0 / crqpoffs=0 / rc=crf / crf=14.0 / qcomp=0.60 / qpstep=4 / stats-write=0 / stats-read=0 / vbv-maxrate=160000 / vbv-bufsize=160000 / vbv-init=0.9 / crf-max=0.0 / crf-min=0.0 / ipratio=1.40 / pbratio=1.30 / aq-mode=2 / aq-strength=1.00 / cutree / zone-count=0 / no-strict-cbr / qg-size=32 / no-rc-grain / qpmax=69 / qpmin=0 / no-const-vbv / sar=0 / overscan=0 / videoformat=5 / range=0 / colorprim=9 / transfer=16 / colormatrix=9 / chromaloc=1 / chromaloc-top=2 / chromaloc-bottom=2 / display-window=0 / master-display=G(13250,34500)B(7500,3000)R(34000,16000)WP(15635,16450)L(10000000,50) / cll=10000,94 / min-luma=0 / max-luma=1023 / log2-max-poc-lsb=8 / vui-timing-info / vui-hrd-info / slices=1 / no-opt-qp-pps / no-opt-ref-list-length-pps / no-multi-pass-opt-rps / scenecut-bias=0.05 / hist-threshold=0.01 / no-opt-cu-delta-qp / no-aq-motion / hdr10 / hdr10-opt / no-dhdr10-opt / no-idr-recovery-sei / analysis-reuse-level=0 / analysis-save-reuse-level=0 / analysis-load-reuse-level=0 / scale-factor=0 / refine-intra=0 / refine-inter=0 / refine-mv=1 / refine-ctu-distortion=0 / no-limit-sao / ctu-info=0 / no-lowpass-dct / refine-analysis-type=0 / copy-pic=1 / max-ausize-factor=1.0 / no-dynamic-refine / no-single-sei / no-hevc-aq / no-svt / no-field / qp-adaptation-range=1.00 / no-scenecut-aware-qpconformance-window-offsets / right=0 / bottom=0 / decoder-max-rate=0
Default : Yes
Forced : No
Color range : Limited
Color primaries : BT.2020
Transfer characteristics : SMPTE ST 2084
Matrix coefficients : BT.2020 non-constant
Mastering display color primaries : R: x=0.680000 y=0.320000, G: x=0.265000 y=0.690000, B: x=0.150000 y=0.060000, White point: x=0.312700 y=0.329000
Mastering display luminance : min: 0.0050 cd/m2, max: 1000.0000 cd/m2
Maximum Content Light Level : 10000 cd/m2
Maximum Frame-Average Light Level : 94 cd/m2

Audio
ID : 2
Format : AC-3
Format/Info : Audio Coding 3
Mode extension : CM (complete main)
Format settings, Endianness : Big
Codec ID : A_AC3
Duration : 1 h 33 min
Bit rate mode : Constant
Bit rate : 448 kb/s
Channel(s) : 6 channels
Channel positions : Front: L C R, Side: L R, LFE
Sampling rate : 48.0 kHz
Frame rate : 31.250 FPS (1536 spf)
Bit depth : 16 bits
Compression mode : Lossy
Stream size : 299 MB (3%)
Language : English
Default : Yes
Forced : No

Text #1
ID : 3
Format : UTF-8
Codec ID : S_TEXT/UTF8
Codec ID/Info : UTF-8 Plain Text
Duration : 1 h 24 min
Bit rate : 42 b/s
Count of elements : 1051
Stream size : 26.5 KiB (0%)
Language : English
Default : No
Forced : No

Text #2
ID : 4
Format : UTF-8
Codec ID : S_TEXT/UTF8
Codec ID/Info : UTF-8 Plain Text
Duration : 1 h 24 min
Bit rate : 29 b/s
Count of elements : 529
Stream size : 18.3 KiB (0%)
Language : French
Default : No
Forced : No

Menu
00:00:00.000 : en:(Unnamed scene)
00:00:17.000 : en:(Unnamed scene)
00:03:48.000 : en:(Unnamed scene)
00:06:17.000 : en:(Unnamed scene)
00:13:54.000 : en:(Unnamed scene)
00:15:05.000 : en:(Unnamed scene)
00:18:06.000 : en:(Unnamed scene)
00:27:17.000 : en:(Unnamed scene)
00:28:43.000 : en:(Unnamed scene)
00:33:20.000 : en:(Unnamed scene)
00:36:33.000 : en:(Unnamed scene)
00:39:05.000 : en:(Unnamed scene)
00:39:38.000 : en:(Unnamed scene)
00:44:25.000 : en:(Unnamed scene)
00:48:13.000 : en:(Unnamed scene)
00:51:12.000 : en:(Unnamed scene)
00:53:34.000 : en:(Unnamed scene)
00:56:37.000 : en:(Unnamed scene)
01:00:08.000 : en:(Unnamed scene)
01:02:43.000 : en:(Unnamed scene)
01:05:23.000 : en:(Unnamed scene)
01:12:47.000 : en:(Unnamed scene)
01:13:49.000 : en:(Unnamed scene)
01:17:10.000 : en:(Unnamed scene)
01:19:32.000 : en:(Unnamed scene)
01:23:13.000 : en:(Unnamed scene)
01:29:29.000 : en:(Unnamed scene)



Screenshots

Breakdown (1997)

Breakdown (1997)

Breakdown (1997)

Breakdown (1997)

Breakdown (1997)

Breakdown (1997)


Come Visit My Blog (•‿•)