Bridget Jones's Baby (2016)

Posted By: JohnSmith
Bridget Jones's Baby (2016)

Bridget Jones's Baby (2016)
HDRip LD | AVI / XviD@1735 kb/s | 720x304 | 2h 2mn | 1.60 GB | Italian: MP3, 128 kb/s (2 ch)
Genre: Comedy | Romance

Dopo la rottura con Mark Darcy, la vita di Bridget Jones non è proseguita secondo le sue aspettative. Quarantenne e passa e di nuovo single, decide di concentrarsi sul suo lavoro e si circonda di amici vecchi e nuovi. Per una volta, sembra avere tutto sotto controllo ma l'incontro con il focoso americano Jack scombussola i suoi piani. Quando poi si ritrova incinta, Bridget non è sicura di chi sia il vero padre della creatura che porta in grembo.




General
Complete name : D:\Bridget.Jones.S.Baby.2016.iTALiAN.LD.WEBDL.XviD-CriMiNaL.avi
Format : AVI
Format/Info : Audio Video Interleave
File size : 1.60 GiB
Duration : 2 h 2 min
Overall bit rate : 1 873 kb/s
Writing library : VirtualDub build 35491/release

Video
ID : 0
Format : MPEG-4 Visual
Format profile : Advanced Simple@L5
Format settings, BVOP : 2
Format settings, QPel : No
Format settings, GMC : No warppoints
Format settings, Matrix : Default (MPEG)
Muxing mode : Packed bitstream
Codec ID : XVID
Codec ID/Hint : XviD
Duration : 2 h 2 min
Bit rate : 1 735 kb/s
Width : 720 pixels
Height : 304 pixels
Display aspect ratio : 2.35:1
Frame rate : 23.976 (23976/1000) FPS
Color space : YUV
Chroma subsampling : 4:2:0
Bit depth : 8 bits
Scan type : Progressive
Compression mode : Lossy
Bits/(Pixel*Frame) : 0.331
Stream size : 1.49 GiB (93%)
Writing library : XviD 67

Audio
ID : 1
Format : MPEG Audio
Format version : Version 1
Format profile : Layer 3
Mode : Joint stereo
Mode extension : MS Stereo
Codec ID : 55
Codec ID/Hint : MP3
Duration : 2 h 2 min
Bit rate mode : Constant
Bit rate : 128 kb/s
Channel(s) : 2 channels
Sampling rate : 48.0 kHz
Compression mode : Lossy
Stream size : 112 MiB (7%)
Alignment : Split accross interleaves
Interleave, duration : 42 ms (1.00 video frame)
Interleave, preload duratio : 500 ms
Writing library : LAME3.99r
Encoding settings : -m j -V 4 -q 3 -lowpass 17 -b 128




Screenshots

Bridget Jones's Baby (2016)

Bridget Jones's Baby (2016)

Bridget Jones's Baby (2016)