Bridget Jones's Baby (2016)

Posted By: JohnSmith
Bridget Jones's Baby (2016)

Bridget Jones's Baby (2016)
BDRip | MKV / AVC@1527 kb/s | 848x352 | 2h 2mn | 1.64 GB
Italian: AC3, 384 kb/s (6 ch) | Subtitles: Italian (forced, full)
Genre: Comedy | Romance

Dopo la rottura con Mark Darcy, la vita di Bridget Jones non è proseguita secondo le sue aspettative. Quarantenne e passa e di nuovo single, decide di concentrarsi sul suo lavoro e si circonda di amici vecchi e nuovi. Per una volta, sembra avere tutto sotto controllo ma l'incontro con il focoso americano Jack scombussola i suoi piani. Quando poi si ritrova incinta, Bridget non è sicura di chi sia il vero padre della creatura che porta in grembo.

IMDB - 1 nomination.



General
Unique ID : 187524557108166258505759574065441403808 (0x8D13EA7DF1BC2F8A84904203A6BFF3A0)
Complete name : A:\Bridget.Joness.Baby.2016.iTA.Bluray.480p.x264-CYBER.mkv
Format : Matroska
Format version : Version 4 / Version 2
File size : 1.64 GiB
Duration : 2 h 2 min
Overall bit rate : 1 913 kb/s
Encoded date : UTC 2016-12-21 06:37:29
Writing application : mkvmerge v8.3.0 ('Over the Horizon') 64bit
Writing library : libebml v1.3.1 + libmatroska v1.4.2

Video
ID : 1
Format : AVC
Format/Info : Advanced Video Codec
Format profile : High@L4.1
Format settings, CABAC : Yes
Format settings, ReFrames : 5 frames
Codec ID : V_MPEG4/ISO/AVC
Duration : 2 h 2 min
Bit rate : 1 527 kb/s
Width : 848 pixels
Height : 352 pixels
Display aspect ratio : 2.40:1
Original display aspect rat : 2.40:1
Frame rate mode : Constant
Frame rate : 23.976 (24000/1001) FPS
Color space : YUV
Chroma subsampling : 4:2:0
Bit depth : 8 bits
Scan type : Progressive
Bits/(Pixel*Frame) : 0.213
Stream size : 1.31 GiB (80%)
Writing library : x264 core 148 r2721 72d53ab
Language : English
Default : Yes
Forced : No

Audio
ID : 2
Format : AC-3
Format/Info : Audio Coding 3
Mode extension : CM (complete main)
Format settings, Endianness : Big
Codec ID : A_AC3
Duration : 2 h 2 min
Bit rate mode : Constant
Bit rate : 384 kb/s
Channel(s) : 6 channels
Channel positions : Front: L C R, Side: L R, LFE
Sampling rate : 48.0 kHz
Frame rate : 31.250 FPS (1536 spf)
Compression mode : Lossy
Stream size : 337 MiB (20%)
Title : iTunes RESYNC
Language : Italian
Default : Yes
Forced : No

Text #1
ID : 3
Format : UTF-8
Codec ID : S_TEXT/UTF8
Codec ID/Info : UTF-8 Plain Text
Duration : 1 h 54 min
Bit rate : 1 b/s
Count of elements : 44
Stream size : 1.28 KiB (0%)
Title : FORCED
Language : Italian
Default : Yes
Forced : Yes

Text #2
ID : 4
Format : UTF-8
Codec ID : S_TEXT/UTF8
Codec ID/Info : UTF-8 Plain Text
Duration : 1 h 54 min
Bit rate : 70 b/s
Count of elements : 1815
Stream size : 59.5 KiB (0%)
Title : REGOLARI
Language : Italian
Default : No
Forced : No




Screenshots

Bridget Jones's Baby (2016)

Bridget Jones's Baby (2016)

Bridget Jones's Baby (2016)