Subcategories

BBC - Britain at War: Imperial War Museum at 100 (2017)

Posted By: notbanned
BBC - Britain at War: Imperial War Museum at 100 (2017)

BBC - Britain at War: Imperial War Museum at 100 (2017)
HDTV | 1280x720 | .MP4/AVC @ 2205 Kbps | 59mn 14s | 1004 MiB
Audio: English AAC 160 kbps, 2 channels | Subs: English
Genre: Documentary

2017 marks the centenary year of the establishment of Imperial War Museums. It was founded while the First World War was still raging - and over the past century, IWM has expanded hugely, with five sites including the Churchill War Rooms and HMS Belfast. It shares stories of those who have lived, fought and died in conflicts involving Britain and the Commonwealth.
This programme, presented by Falkland’s veteran and charity campaigner Simon Weston CBE, looks at ten key objects from the IWM's collection. Each of the objects has a special advocate to explore what it reveals about the story of conflict - Bear Grylls ventures onto HMS Belfast, Al Murray looks at a Spitfire at Duxford, and the artists Cornelia Parker and Steve McQueen discuss how they have responded to war and loss in their work. Kate Adie tells the remarkable tale of the typewriter in the Churchill War Rooms, Dame Kelly Holmes meets the extraordinary Johnson Beharry VC to hear about his experiences in the Iraq War, and Anita Rani explores the incredible heroism of one soldier in the British-Indian Army.


General
Complete name : Britain.at.War.Imperial.War.Museum.at.100.720p.mp4
Format : MPEG-4
Format profile : Base Media
Codec ID : isom
File size : 1 004 MiB
Duration : 59mn 14s
Overall bit rate mode : Variable
Overall bit rate : 2 369 Kbps

Video
ID : 1
Format : AVC
Format/Info : Advanced Video Codec
Format profile : High@L4.1
Format settings, CABAC : Yes
Format settings, ReFrames : 4 frames
Codec ID : avc1
Codec ID/Info : Advanced Video Coding
Duration : 59mn 14s
Bit rate : 2 205 Kbps
Maximum bit rate : 11.8 Mbps
Width : 1 280 pixels
Height : 720 pixels
Display aspect ratio : 16:9
Frame rate mode : Constant
Frame rate : 25.000 fps
Color space : YUV
Chroma subsampling : 4:2:0
Bit depth : 8 bits
Scan type : Progressive
Bits/(Pixel*Frame) : 0.096
Stream size : 934 MiB (93%)
Encoding settings : cabac=1 / ref=1 / deblock=1:0:0 / analyse=0x3:0x3 / me=dia / subme=1 / psy=1 / psy_rd=1.00:0.00 / mixed_ref=0 / me_range=16 / chroma_me=1 / trellis=0 / 8x8dct=1 / cqm=0 / deadzone=21,11 / fast_pskip=1 / chroma_qp_offset=0 / threads=6 / lookahead_threads=1 / sliced_threads=0 / nr=0 / decimate=1 / interlaced=0 / bluray_compat=0 / constrained_intra=0 / bframes=3 / b_pyramid=2 / b_adapt=1 / b_bias=0 / direct=1 / weightb=1 / open_gop=0 / weightp=1 / keyint=250 / keyint_min=25 / scenecut=40 / intra_refresh=0 / rc_lookahead=0 / rc=crf / mbtree=0 / crf=22.0 / qcomp=0.60 / qpmin=0 / qpmax=69 / qpstep=4 / vbv_maxrate=62500 / vbv_bufsize=78125 / crf_max=0.0 / nal_hrd=none / filler=0 / ip_ratio=1.40 / pb_ratio=1.30 / aq=1:1.00
Encoded date : UTC 2017-03-25 14:15:24
Tagged date : UTC 2017-03-25 15:20:23
Color range : Limited
Color primaries : BT.709
Transfer characteristics : BT.709
Matrix coefficients : BT.709

Audio
ID : 2
Format : AAC
Format/Info : Advanced Audio Codec
Format profile : LC
Codec ID : 40
Duration : 59mn 14s
Bit rate mode : Variable
Bit rate : 160 Kbps
Maximum bit rate : 183 Kbps
Channel(s) : 2 channels
Channel positions : Front: L R
Sampling rate : 48.0 KHz
Compression mode : Lossy
Stream size : 68.0 MiB (7%)
Language : English
Encoded date : UTC 2017-03-25 15:20:16
Tagged date : UTC 2017-03-25 15:20:23

Text
ID : 3
Format : Timed Text
Codec ID : tx3g
Duration : 58mn 39s
Bit rate mode : Variable
Bit rate : 107 bps
Stream size : 46.0 KiB (0%)
Encoded date : UTC 2017-03-25 15:20:23
Tagged date : UTC 2017-03-25 15:20:23


Screenshots:

BBC - Britain at War: Imperial War Museum at 100 (2017)

BBC - Britain at War: Imperial War Museum at 100 (2017)

BBC - Britain at War: Imperial War Museum at 100 (2017)

BBC - Britain at War: Imperial War Museum at 100 (2017)