Bumblebee (2018)

Posted By: Tavaz
720p (HD) / BDRip IMDb
Bumblebee (2018)

Bumblebee (2018)
BDRip | MKV | 1280x720 | English | H264 @ 10216 kbps | AC-3 @ 640 kbps | 1 h 53 min | 8.69 GiB
Subtitles: Swedish, Icelandic, Vietnamese, Romanian, Slovenian, Hindi, Dutch, Korean, Danish, Indonesian, Hungarian, Turkish, Malay, French, Norwegian, Russian, Thai, Finnish, Greek, English, Italian, Portuguese, Chinese, Czech, Slovak, Spanish, Polish, Arabic
Genre: Action, Adventure, Science Fiction

On the run in the year 1987, Bumblebee finds refuge in a junkyard in a small Californian beach town. Charlie, on the cusp of turning 18 and trying to find her place in the world, discovers Bumblebee, battle-scarred and broken. When Charlie revives him, she quickly learns this is no ordinary yellow VW bug.

Bumblebee.2018.720p.BluRay.DD-EX5.1.x264-CHC-Obfuscated=f957f6b3e5ec2a5aeb9991f0b8ae259c41ee4d4b.part1.rar (4.6 GB)
Bumblebee.2018.720p.BluRay.DD-EX5.1.x264-CHC-Obfuscated=f957f6b3e5ec2a5aeb9991f0b8ae259c41ee4d4b.part2.rar (4.2 GB)



General
Unique ID : 75280472593159039898830339679454168079 (0x38A27DDC15BAB4D3E5247A1282EF040F)
Complete name : ./22a6f10c3698466aacaf6f942b0fffa0.mkv
Format : Matroska
Format version : Version 4 / Version 2
File size : 8.69 GiB
Duration : 1 h 53 min
Overall bit rate : 10.9 Mb/s
Movie name : Bumblebee (2018) CHC
Encoded date : UTC 2019-03-30 18:03:59
Writing application : mkvmerge v31.0.0 ('Dolores In A Shoestand') 64-bit
Writing library : libebml v1.3.6 + libmatroska v1.4.9

Video
ID : 1
Format : AVC
Format/Info : Advanced Video Codec
Format profile : High@L4.1
Format settings : CABAC / 9 Ref Frames
Format settings, CABAC : Yes
Format settings, RefFrames : 9 frames
Codec ID : V_MPEG4/ISO/AVC
Duration : 1 h 53 min
Bit rate : 10.2 Mb/s
Width : 1 280 pixels
Height : 720 pixels
Display aspect ratio : 16:9
Frame rate mode : Constant
Frame rate : 23.976 (24000/1001) FPS
Color space : YUV
Chroma subsampling : 4:2:0
Bit depth : 8 bits
Scan type : Progressive
Bits/(Pixel*Frame) : 0.462
Stream size : 8.13 GiB (93%)
Writing library : x264 core 155 r2867+74 66b5600 t_mod_Custom_2 [8-bit@all X86_64]
Encoding settings : cabac=1 / ref=9 / deblock=1:-3:-3 / analyse=0x3:0x113 / me=umh / subme=11 / psy=1 / fade_compensate=0.00 / psy_rd=1.05:0.00 / mixed_ref=1 / me_range=32 / chroma_me=1 / trellis=2 / 8x8dct=1 / cqm=0 / deadzone=21,11 / fast_pskip=0 / chroma_qp_offset=-2 / threads=12 / lookahead_threads=2 / sliced_threads=0 / nr=0 / decimate=0 / interlaced=0 / bluray_compat=0 / constrained_intra=0 / fgo=0 / bframes=8 / b_pyramid=2 / b_adapt=2 / b_bias=0 / direct=3 / weightb=1 / open_gop=0 / weightp=2 / keyint=250 / keyint_min=23 / scenecut=40 / intra_refresh=0 / rc_lookahead=60 / rc=crf / mbtree=0 / crf=16.7000 / qcomp=0.65 / qpmin=0:0:0 / qpmax=69:69:69 / qpstep=4 / vbv_maxrate=30000 / vbv_bufsize=38000 / crf_max=0.0 / nal_hrd=none / filler=0 / ip_ratio=1.30 / pb_ratio=1.20 / aq=3:0.85 / aq-sensitivity=10.00 / aq-factor=1.00:1.00:1.00 / aq2=0 / aq3=0 / zones=1119,4880,crf=15.9/5054,5075,crf=13.7/27820,29474,crf=15/37971,38271,crf=15/47972,50273,crf=15/52129,52208,crf=14.2/62576,63640,crf=15.9/91487,94088,crf=15.9/114365,115599,crf=15.7/115613,115783,crf=14/115784,116156,crf=14.7/116157,116218,crf=14/116253,117413,crf=14.7/123247,123354,crf=15.7/123355,123431,crf=14/123432,124821,crf=14.7/124822,125592,crf=15.9/125593,126098,crf=14.2/126099,132191,crf=15.9/132192,132233,crf=14/132234,133789,crf=15.9/135800,149431,crf=15.9/153624,153937,crf=14.2/160371,163680,crf=20.7
Language : English
Default : Yes
Forced : No
Color range : Limited
Color primaries : BT.709
Transfer characteristics : BT.709
Matrix coefficients : BT.709

Audio
ID : 2
Format : AC-3
Format/Info : Audio Coding 3
Format settings, Endianness : Big
Codec ID : A_AC3
Duration : 1 h 53 min
Bit rate mode : Constant
Bit rate : 640 kb/s
Channel(s) : 6 channels
Channel positions : Front: L C R, Side: L R, LFE
Sampling rate : 48.0 kHz
Frame rate : 31.250 FPS (1536 SPF)
Bit depth : 16 bits
Compression mode : Lossy
Stream size : 521 MiB (6%)
Language : English
Service kind : Complete Main
Default : Yes
Forced : No

Text #1
ID : 3
Format : UTF-8
Codec ID : S_TEXT/UTF8
Codec ID/Info : UTF-8 Plain Text
Duration : 1 h 48 min
Bit rate : 56 b/s
Count of elements : 1651
Stream size : 44.6 KiB (0%)
Title : SDH
Language : English
Default : No
Forced : No

Text #2
ID : 4
Format : UTF-8
Codec ID : S_TEXT/UTF8
Codec ID/Info : UTF-8 Plain Text
Duration : 1 h 48 min
Bit rate : 44 b/s
Count of elements : 1222
Stream size : 35.4 KiB (0%)
Language : English
Default : No
Forced : No

Text #3
ID : 5
Format : UTF-8
Codec ID : S_TEXT/UTF8
Codec ID/Info : UTF-8 Plain Text
Duration : 1 h 48 min
Bit rate : 60 b/s
Count of elements : 1200
Stream size : 48.4 KiB (0%)
Language : Arabic
Default : No
Forced : No

Text #4
ID : 6
Format : UTF-8
Codec ID : S_TEXT/UTF8
Codec ID/Info : UTF-8 Plain Text
Duration : 1 h 48 min
Bit rate : 37 b/s
Count of elements : 1163
Stream size : 30.0 KiB (0%)
Language : Czech
Default : No
Forced : No

Text #5
ID : 7
Format : UTF-8
Codec ID : S_TEXT/UTF8
Codec ID/Info : UTF-8 Plain Text
Duration : 1 h 52 min
Bit rate : 36 b/s
Count of elements : 922
Stream size : 30.1 KiB (0%)
Language : Danish
Default : No
Forced : No

Text #6
ID : 8
Format : UTF-8
Codec ID : S_TEXT/UTF8
Codec ID/Info : UTF-8 Plain Text
Duration : 1 h 52 min
Bit rate : 32 b/s
Count of elements : 917
Stream size : 27.2 KiB (0%)
Language : Dutch
Default : No
Forced : No

Text #7
ID : 9
Format : UTF-8
Codec ID : S_TEXT/UTF8
Codec ID/Info : UTF-8 Plain Text
Duration : 1 h 52 min
Bit rate : 34 b/s
Count of elements : 1168
Stream size : 28.5 KiB (0%)
Language : Finnish
Default : No
Forced : No

Text #8
ID : 10
Format : UTF-8
Codec ID : S_TEXT/UTF8
Codec ID/Info : UTF-8 Plain Text
Duration : 1 h 52 min
Bit rate : 34 b/s
Count of elements : 1164
Stream size : 28.3 KiB (0%)
Language : French
Default : No
Forced : No

Text #9
ID : 11
Format : UTF-8
Codec ID : S_TEXT/UTF8
Codec ID/Info : UTF-8 Plain Text
Duration : 1 h 52 min
Bit rate : 44 b/s
Count of elements : 1127
Stream size : 36.5 KiB (0%)
Title : Canadian
Language : French
Default : No
Forced : No

Text #10
ID : 12
Format : UTF-8
Codec ID : S_TEXT/UTF8
Codec ID/Info : UTF-8 Plain Text
Duration : 1 h 53 min
Bit rate : 62 b/s
Count of elements : 1064
Stream size : 52.1 KiB (0%)
Title : Modern
Language : Greek
Default : No
Forced : No

Text #11
ID : 13
Format : UTF-8
Codec ID : S_TEXT/UTF8
Codec ID/Info : UTF-8 Plain Text
Duration : 1 h 52 min
Bit rate : 38 b/s
Count of elements : 1173
Stream size : 32.0 KiB (0%)
Language : Hungarian
Default : No
Forced : No

Text #12
ID : 14
Format : UTF-8
Codec ID : S_TEXT/UTF8
Codec ID/Info : UTF-8 Plain Text
Duration : 1 h 48 min
Bit rate : 32 b/s
Count of elements : 1059
Stream size : 26.0 KiB (0%)
Language : Indonesian
Default : No
Forced : No

Text #13
ID : 15
Format : UTF-8
Codec ID : S_TEXT/UTF8
Codec ID/Info : UTF-8 Plain Text
Duration : 1 h 52 min
Bit rate : 38 b/s
Count of elements : 1049
Stream size : 32.1 KiB (0%)
Language : Italian
Default : No
Forced : No

Text #14
ID : 16
Format : UTF-8
Codec ID : S_TEXT/UTF8
Codec ID/Info : UTF-8 Plain Text
Duration : 1 h 52 min
Bit rate : 35 b/s
Count of elements : 1140
Stream size : 29.4 KiB (0%)
Language : Korean
Default : No
Forced : No

Text #15
ID : 17
Format : UTF-8
Codec ID : S_TEXT/UTF8
Codec ID/Info : UTF-8 Plain Text
Duration : 1 h 52 min
Bit rate : 41 b/s
Count of elements : 1185
Stream size : 34.4 KiB (0%)
Language : Malay
Default : No
Forced : No

Text #16
ID : 18
Format : UTF-8
Codec ID : S_TEXT/UTF8
Codec ID/Info : UTF-8 Plain Text
Duration : 1 h 52 min
Bit rate : 33 b/s
Count of elements : 1146
Stream size : 27.7 KiB (0%)
Language : Norwegian
Default : No
Forced : No

Text #17
ID : 19
Format : UTF-8
Codec ID : S_TEXT/UTF8
Codec ID/Info : UTF-8 Plain Text
Duration : 1 h 52 min
Bit rate : 32 b/s
Count of elements : 1146
Stream size : 26.7 KiB (0%)
Title : Brazilian
Language : Portuguese
Default : No
Forced : No

Text #18
ID : 20
Format : UTF-8
Codec ID : S_TEXT/UTF8
Codec ID/Info : UTF-8 Plain Text
Duration : 1 h 52 min
Bit rate : 37 b/s
Count of elements : 1147
Stream size : 31.0 KiB (0%)
Language : Romanian
Default : No
Forced : No

Text #19
ID : 21
Format : UTF-8
Codec ID : S_TEXT/UTF8
Codec ID/Info : UTF-8 Plain Text
Duration : 1 h 52 min
Bit rate : 35 b/s
Count of elements : 1184
Stream size : 29.4 KiB (0%)
Language : Slovak
Default : No
Forced : No

Text #20
ID : 22
Format : UTF-8
Codec ID : S_TEXT/UTF8
Codec ID/Info : UTF-8 Plain Text
Duration : 1 h 48 min
Bit rate : 33 b/s
Count of elements : 765
Stream size : 26.5 KiB (0%)
Language : Slovenian
Default : No
Forced : No

Text #21
ID : 23
Format : UTF-8
Codec ID : S_TEXT/UTF8
Codec ID/Info : UTF-8 Plain Text
Duration : 1 h 52 min
Bit rate : 39 b/s
Count of elements : 1146
Stream size : 32.3 KiB (0%)
Title : Castilian
Language : Spanish
Default : No
Forced : No

Text #22
ID : 24
Format : UTF-8
Codec ID : S_TEXT/UTF8
Codec ID/Info : UTF-8 Plain Text
Duration : 1 h 52 min
Bit rate : 38 b/s
Count of elements : 1123
Stream size : 31.6 KiB (0%)
Title : Latin American
Language : Spanish
Default : No
Forced : No

Text #23
ID : 25
Format : UTF-8
Codec ID : S_TEXT/UTF8
Codec ID/Info : UTF-8 Plain Text
Duration : 1 h 52 min
Bit rate : 36 b/s
Count of elements : 1119
Stream size : 29.9 KiB (0%)
Language : Swedish
Default : No
Forced : No

Text #24
ID : 26
Format : UTF-8
Codec ID : S_TEXT/UTF8
Codec ID/Info : UTF-8 Plain Text
Duration : 1 h 48 min
Bit rate : 61 b/s
Count of elements : 1248
Stream size : 48.9 KiB (0%)
Language : Vietnamese
Default : No
Forced : No

Text #25
ID : 27
Format : PGS
Muxing mode : zlib
Codec ID : S_HDMV/PGS
Codec ID/Info : Picture based subtitle format used on BDs/HD-DVDs
Duration : 1 h 53 min
Bit rate : 19.6 kb/s
Count of elements : 2322
Stream size : 15.8 MiB (0%)
Title : Cantonese
Language : Chinese
Default : No
Forced : No

Text #26
ID : 28
Format : PGS
Muxing mode : zlib
Codec ID : S_HDMV/PGS
Codec ID/Info : Picture based subtitle format used on BDs/HD-DVDs
Duration : 1 h 53 min
Bit rate : 18.6 kb/s
Count of elements : 2334
Stream size : 15.0 MiB (0%)
Title : Chinese Mandarin Traditional
Language : Chinese
Default : No
Forced : No

Text #27
ID : 29
Format : PGS
Muxing mode : zlib
Codec ID : S_HDMV/PGS
Codec ID/Info : Picture based subtitle format used on BDs/HD-DVDs
Duration : 1 h 53 min
Bit rate : 36.2 kb/s
Count of elements : 3026
Stream size : 29.3 MiB (0%)
Language : Hindi
Default : No
Forced : No

Text #28
ID : 30
Format : PGS
Muxing mode : zlib
Codec ID : S_HDMV/PGS
Codec ID/Info : Picture based subtitle format used on BDs/HD-DVDs
Duration : 1 h 52 min
Bit rate : 23.8 kb/s
Count of elements : 2288
Stream size : 19.2 MiB (0%)
Language : Icelandic
Default : No
Forced : No

Text #29
ID : 31
Format : PGS
Muxing mode : zlib
Codec ID : S_HDMV/PGS
Codec ID/Info : Picture based subtitle format used on BDs/HD-DVDs
Duration : 1 h 52 min
Bit rate : 22.0 kb/s
Count of elements : 2218
Stream size : 17.8 MiB (0%)
Language : Polish
Default : No
Forced : No

Text #30
ID : 32
Format : PGS
Muxing mode : zlib
Codec ID : S_HDMV/PGS
Codec ID/Info : Picture based subtitle format used on BDs/HD-DVDs
Duration : 1 h 53 min
Bit rate : 22.9 kb/s
Count of elements : 2350
Stream size : 18.5 MiB (0%)
Language : Russian
Default : No
Forced : No

Text #31
ID : 33
Format : PGS
Muxing mode : zlib
Codec ID : S_HDMV/PGS
Codec ID/Info : Picture based subtitle format used on BDs/HD-DVDs
Duration : 1 h 53 min
Bit rate : 16.8 kb/s
Count of elements : 2290
Stream size : 13.6 MiB (0%)
Language : Thai
Default : No
Forced : No

Text #32
ID : 34
Format : PGS
Muxing mode : zlib
Codec ID : S_HDMV/PGS
Codec ID/Info : Picture based subtitle format used on BDs/HD-DVDs
Duration : 1 h 52 min
Bit rate : 23.9 kb/s
Count of elements : 2288
Stream size : 19.3 MiB (0%)
Language : Turkish
Default : No
Forced : No

Menu
00:00:00.000 : en:Chapter 01
00:03:30.710 : en:Chapter 02
00:12:16.486 : en:Chapter 03
00:16:56.724 : en:Chapter 04
00:21:03.053 : en:Chapter 05
00:26:42.601 : en:Chapter 06
00:32:33.326 : en:Chapter 07
00:39:44.090 : en:Chapter 08
00:45:18.591 : en:Chapter 09
00:50:43.624 : en:Chapter 10
00:54:16.253 : en:Chapter 11
01:01:10.709 : en:Chapter 12
01:06:26.900 : en:Chapter 13
01:11:39.545 : en:Chapter 14
01:16:08.105 : en:Chapter 15
01:21:37.142 : en:Chapter 16
01:25:08.603 : en:Chapter 17
01:30:15.410 : en:Chapter 18
01:36:46.801 : en:Chapter 19
01:43:52.560 : en:Chapter 20
01:49:43.202 : en:Chapter 21





Bumblebee (2018)


Bumblebee (2018)


Bumblebee (2018)


Bumblebee (2018)


Bumblebee (2018)