Tags
Language
Tags

Burn: Hell of a Night (2019)

Posted By: Barfin
1080p (FullHD) / BDRip IMDb
Burn: Hell of a Night (2019)

Burn: Hell of a Night (2019)
BDRip 1080p | MKV / AVC@9947 kb/s | 1920x1016 | 1h 28mn
Deutsch (dubbed): DTS, 1152 kb/s (6 ch) | Subtitles: Deutsch | 6.87 GB
Genre: Thriller

Die unscheinbare Melinda arbeitet in einer abgelegenen 24-Stunden-Tankstelle. Sie leidet sehr darunter, dass sämtliche Kunden nur auf ihre attraktive aber zickige Kollegin Sheila abfahren. Sie selbst vereinsamt und verzweifelt an ihrem trostlosen Leben. Dann taucht Billy auf. Um seine Schulden bei einer brutalen Rocker-Gang begleichen zu können, braucht er Cash. Die Tankstellen-Kasse und die beiden Mädchen scheinen leichte Beute. Melinda wittert die Chance, mit Billy in ein wildes und gefährliches Leben auszubrechen. Doch dann läuft der Überfall völlig aus dem Ruder…


General
Unique ID : 230620668590064274651361337907919249902 (0xAD7FECD62FA627EC8AE14F2A8FF4E1EE)
Complete name : G:\Burn.Hell.of.a.Night.2019.German.DTS.1080p.BluRay.x264.mkv
Format : Matroska
Format version : Version 4
File size : 6.87 GiB
Duration : 1 h 28 min
Overall bit rate : 11.1 Mb/s
Encoded date : UTC 2019-12-10 07:54:54
Writing application : mkvmerge v7.8.0 ('River Man') 32bit built on Apr 3 2015 12:11:22
Writing library : libebml v1.3.1 + libmatroska v1.4.2

Video
ID : 1
Format : AVC
Format/Info : Advanced Video Codec
Format profile : High@L4.1
Format settings : CABAC / 4 Ref Frames
Format settings, CABAC : Yes
Format settings, ReFrames : 4 frames
Codec ID : V_MPEG4/ISO/AVC
Duration : 1 h 28 min
Bit rate : 9 947 kb/s
Width : 1 920 pixels
Height : 1 016 pixels
Display aspect ratio : 1.890
Frame rate mode : Constant
Frame rate : 23.976 (24000/1001) FPS
Color space : YUV
Chroma subsampling : 4:2:0
Bit depth : 8 bits
Scan type : Progressive
Bits/(Pixel*Frame) : 0.213
Stream size : 6.15 GiB (89%)
Writing library : x264 core 157 r2935 545de2f
Encoding settings : cabac=1 / ref=4 / deblock=1:-1:-1 / analyse=0x3:0x113 / me=umh / subme=8 / psy=1 / psy_rd=0.99:0.01 / mixed_ref=1 / me_range=16 / chroma_me=1 / trellis=2 / 8x8dct=1 / cqm=0 / deadzone=21,11 / fast_pskip=1 / chroma_qp_offset=-3 / threads=12 / lookahead_threads=2 / sliced_threads=0 / nr=0 / decimate=1 / interlaced=0 / bluray_compat=0 / constrained_intra=0 / bframes=3 / b_pyramid=2 / b_adapt=1 / b_bias=0 / direct=3 / weightb=1 / open_gop=0 / weightp=2 / keyint=240 / keyint_min=23 / scenecut=40 / intra_refresh=0 / rc_lookahead=50 / rc=crf / mbtree=1 / crf=18.0 / qcomp=0.60 / qpmin=0 / qpmax=69 / qpstep=4 / vbv_maxrate=62500 / vbv_bufsize=78125 / crf_max=0.0 / nal_hrd=none / filler=0 / ip_ratio=1.40 / aq=1:1.00
Default : Yes
Forced : No

Audio
ID : 2
Format : DTS
Format/Info : Digital Theater Systems
Codec ID : A_DTS
Duration : 1 h 28 min
Bit rate mode : Constant
Bit rate : 1 152 kb/s
Channel(s) : 6 channels
Channel layout : C L R Ls Rs LFE
Sampling rate : 48.0 kHz
Frame rate : 93.750 FPS (512 SPF)
Bit depth : 24 bits
Compression mode : Lossy
Stream size : 729 MiB (10%)
Language : German
Default : Yes
Forced : No

Text #1
ID : 3
Format : UTF-8
Codec ID : S_TEXT/UTF8
Codec ID/Info : UTF-8 Plain Text
Duration : 56 min 16 s
Bit rate : 0 b/s
Count of elements : 4
Stream size : 94.0 Bytes (0%)
Title : forced
Language : German
Default : Yes
Forced : Yes

Text #2
ID : 4
Format : PGS
Muxing mode : zlib
Codec ID : S_HDMV/PGS
Codec ID/Info : Picture based subtitle format used on BDs/HD-DVDs
Duration : 1 h 20 min
Bit rate : 24.2 kb/s
Count of elements : 1460
Stream size : 13.9 MiB (0%)
Title : complete
Language : German
Default : No
Forced : No




Screenshots

Burn: Hell of a Night (2019)

Burn: Hell of a Night (2019)

Burn: Hell of a Night (2019)