Cane mangia cane (2016)

Posted By: JohnSmith
Cane mangia cane (2016)

Cane mangia cane / Dog Eat Dog (2016)
BDRip MD | AVI / XviD@1808 kb/s | 720x304 | 1h 33mn | 1.26 GB | Italian (dubbed): MP3, 128 kb/s (2 ch)
Genre: Crime | Drama | Thriller

Tre uomini, usciti di prigione, hanno il dovere di riadattarsi alla vita civile. La legge della California incombe su di loro ma i tre hanno tutta l'intenzione di non lasciarsi sopraffare. Troy, mente solitaria, cerca una via pulita ma non riesce a liberarsi del suo odio per il sistema. Diesel è invece sul libro paga della criminalità e il suo interesse per la moglie e la sua casa di periferia è in netto calo. Mad Dog, infine, è la mina vagante del trio: in preda ai propri demoni interiori, si lascia trasportare da una situazione all'altra. Per tutti e tre basterebbe un ultimo colpo per sistemarsi: un crimine perfetto che la mente di Troy non fatica a elaborare.




General
Complete name : A:\Cane.Mangia.Cane.2016.iTALiAN.MD.BDRip.XviD-GENiSYS.avi
Format : AVI
Format/Info : Audio Video Interleave
File size : 1.26 GiB
Duration : 1 h 33 min
Overall bit rate : 1 946 kb/s
Writing library : VirtualDub build 35491/release

Video
ID : 0
Format : MPEG-4 Visual
Format profile : Advanced Simple@L5
Format settings, BVOP : 2
Format settings, QPel : No
Format settings, GMC : No warppoints
Format settings, Matrix : Default (MPEG)
Muxing mode : Packed bitstream
Codec ID : XVID
Codec ID/Hint : XviD
Duration : 1 h 32 min
Bit rate : 1 808 kb/s
Width : 720 pixels
Height : 304 pixels
Display aspect ratio : 2.35:1
Frame rate : 23.976 (24000/1001) FPS
Color space : YUV
Chroma subsampling : 4:2:0
Bit depth : 8 bits
Scan type : Progressive
Compression mode : Lossy
Bits/(Pixel*Frame) : 0.345
Stream size : 1.17 GiB (93%)
Writing library : XviD 67

Audio
ID : 1
Format : MPEG Audio
Format version : Version 1
Format profile : Layer 3
Mode : Joint stereo
Mode extension : MS Stereo
Codec ID : 55
Codec ID/Hint : MP3
Duration : 1 h 33 min
Bit rate mode : Constant
Bit rate : 128 kb/s
Channel(s) : 2 channels
Sampling rate : 48.0 kHz
Compression mode : Lossy
Stream size : 85.1 MiB (7%)
Alignment : Split accross interleaves
Interleave, duration : 42 ms (1.00 video frame)
Interleave, preload duratio : 500 ms
Writing library : LAME3.99r
Encoding settings : -m j -V 4 -q 3 -lowpass 17 -b 128




Screenshots

Cane mangia cane (2016)

Cane mangia cane (2016)

Cane mangia cane (2016)