Captain Corelli's Mandolin (2001)

Posted By: king-ston
1080p (FullHD) / BDRip IMDb
Captain Corelli's Mandolin (2001)

Captain Corelli's Mandolin (2001)
BDRip | MKV | AVC, 11.8 Mbps | 1920x816 | 23.976 fps | 12 GB | Runtime: 128 Min
Audio : English DTS 1509 Kbps | 6 channels | 48 KHz | Subtitle : English
Genre : Drama | Music | Romance | War

In 1941, Italy allies with Germany and ruthlessly conquers the much weaker country of Greece. On a remote Greek island, an Italian artillery garrison is established to maintain order. One Italian officer, Captain Corelli, adopts an attitude of mutual co-existence with the Greeks and engages in such activities as music festivals and courting the daughter of a local doctor. In 1943, however, after Italy surrenders to the Allies and changes sides in the war, Captain Corelli must defend the Greek island against a German invasion.


Video
ID : 1
Format : AVC
Format/Info : Advanced Video Codec
Format profile : High@L4.1
Format settings, CABAC : Yes
Format settings, ReFrames : 5 frames
Codec ID : V_MPEG4/ISO/AVC
Duration : 2 h 8 min
Bit rate : 11.8 Mb/s
Width : 1 920 pixels
Height : 816 pixels
Display aspect ratio : 2.35:1
Frame rate mode : Constant
Frame rate : 23.976 (24000/1001) FPS
Color space : YUV
Chroma subsampling : 4:2:0
Bit depth : 8 bits
Scan type : Progressive
Bits/(Pixel*Frame) : 0.315
Stream size : 10.4 GiB (87%)
Writing library : x264 core 152 r2851 ba24899
Encoding settings : cabac=1 / ref=5 / deblock=1:-3:-3 / analyse=0x3:0x113 / me=umh / subme=8 / psy=1 / psy_rd=1.00:0.00 / mixed_ref=1 / me_range=16 / chroma_me=1 / trellis=2 / 8x8dct=1 / cqm=0 / deadzone=21,11 / fast_pskip=0 / chroma_qp_offset=-2 / threads=18 / lookahead_threads=3 / sliced_threads=0 / nr=0 / decimate=1 / interlaced=0 / bluray_compat=0 / constrained_intra=0 / bframes=3 / b_pyramid=2 / b_adapt=1 / b_bias=0 / direct=1 / weightb=1 / open_gop=0 / weightp=2 / keyint=250 / keyint_min=23 / scenecut=40 / intra_refresh=0 / rc_lookahead=40 / rc=2pass / mbtree=1 / bitrate=11848 / ratetol=1.0 / qcomp=0.60 / qpmin=0 / qpmax=69 / qpstep=4 / cplxblur=20.0 / qblur=0.5 / ip_ratio=1.40 / aq=1:1.00
Language : English
Default : Yes
Forced : No

Audio
ID : 2
Format : DTS
Format/Info : Digital Theater Systems
Mode : 16
Format settings, Endianness : Big
Codec ID : A_DTS
Duration : 2 h 8 min
Bit rate mode : Constant
Bit rate : 1 509 kb/s
Channel(s) : 6 channels
Channel positions : Front: L C R, Side: L R, LFE
Sampling rate : 48.0 kHz
Frame rate : 93.750 FPS (512 spf)
Bit depth : 24 bits
Compression mode : Lossy
Stream size : 1.36 GiB (11%)
Language : English
Default : Yes
Forced : Yes

Text
ID : 3
Format : UTF-8
Codec ID : S_TEXT/UTF8
Codec ID/Info : UTF-8 Plain Text
Language : English
Default : No
Forced : No


Captain Corelli's Mandolin (2001)

Captain Corelli's Mandolin (2001)

Captain Corelli's Mandolin (2001)

Captain Corelli's Mandolin (2001)

Captain Corelli's Mandolin (2001)