Carnival of Souls (1962)

Posted By: ChumPaa
Carnival of Souls (1962)

Carnival of Souls (1962)
A Film by Herk Harvey
DVDRip | AVI | Lang: English | Subs: English(.srt) | 1h 18min | 576x432 | MPEG-4 @ 1161Kbps | MP3 @ 82Kbps | 702 MB
Genre: Horror | Thriller

General
Complete name : E:\AvaxUL\Carnival of Souls (1962)\Carnival.of.Souls.1962.avi
Format : AVI
Format/Info : Audio Video Interleave
File size : 702 MiB
Duration : 1h 18mn
Overall bit rate mode : Variable
Overall bit rate : 1 256 Kbps
Writing application : VirtualDubMod 1.5.10.1 (build 2366/release)
Writing library : VirtualDub build 32842/release

Video
ID : 0
Format : MPEG-4 Visual
Format profile : Advanced Simple@L5
Format settings, BVOP : 2
Format settings, QPel : No
Format settings, GMC : No warppoints
Format settings, Matrix : Default (H.263)
Codec ID : XVID
Codec ID/Hint : XviD
Duration : 1h 18mn
Bit rate : 1 161 Kbps
Width : 576 pixels
Height : 432 pixels
Display aspect ratio : 4:3
Frame rate : 23.976 fps
Color space : YUV
Chroma subsampling : 4:2:0
Bit depth : 8 bits
Scan type : Progressive
Compression mode : Lossy
Bits/(Pixel*Frame) : 0.195
Stream size : 649 MiB (92%)
Writing library : XviD 1.0.3 (UTC 2004-12-20)

Audio
ID : 1
Format : MPEG Audio
Format version : Version 1
Format profile : Layer 3
Codec ID : 55
Codec ID/Hint : MP3
Duration : 1h 18mn
Bit rate mode : Variable
Bit rate : 82.2 Kbps
Minimum bit rate : 32.0 Kbps
Channel(s) : 1 channel
Sampling rate : 48.0 KHz
Compression mode : Lossy
Stream size : 45.9 MiB (7%)
Alignment : Aligned on interleaves
Interleave, duration : 24 ms (0.58 video frame)
Interleave, preload duration : 224 ms
Writing library : LAME3.92
Encoding settings : -m m -V 0 -q 2 -lowpass 20.3 –vbr-new -b 32

IMDB
IMDB Rating: 7.2/10
Directed by: Herk Harvey
Starring: Candace Hilligoss, Frances Feist, Sidney Berger

Storyline: Mary Henry is enjoying the day by riding around in a car with two friends. When challenged to a drag, the women accept, but are forced off of a bridge. It appears that all are drowned, until Mary, quite some time later, amazingly emerges from the river. After recovering, Mary accepts a job in a new town as a church organist, only to be dogged by a mysterious phantom figure that seems to reside in an old run-down pavilion. It is here that Mary must confront the personal demons of her spiritual insouciance.

Screenshots:

Carnival of Souls (1962)

Carnival of Souls (1962)

Carnival of Souls (1962)

Carnival of Souls (1962)

Carnival of Souls (1962)

Carnival of Souls (1962)