Cars 3 (2017) [3D]

Posted By: JohnSmith
Cars 3 (2017) [3D]

Cars 3 (2017)
3D HSBS | BDRip 1080p | MKV / AVC@7660 kb/s | 1920x808 | 1h 42mn | 6.56 GB | English: DTS, 1509 kb/s (6 ch)
Genre: Animation | Adventure | Comedy | Family | Sport

Blindsided by a new generation of blazing-fast racers, the legendary Lightning McQueen is suddenly pushed out of the sport he loves. To get back in the game, he will need the help of an eager young race technician with her own plan to win, inspiration from the late Fabulous Hudson Hornet, and a few unexpected turns. Proving that #95 isn't through yet will test the heart of a champion on Piston Cup Racing's biggest stage!




General
Unique ID : 250696168569141884549586160368900763373 (0xBC9A536790F7DE19B10F351608B1EEED)
Complete name : D:\Downloads\Cars.3.2017.3D.1080p.BluRay.x264-SPRiNTER[rarbg]\cars.3.2017.3d.1080p.bluray.x264-sprinter.mkv
Format : Matroska
Format version : Version 4 / Version 2
File size : 6.56 GiB
Duration : 1 h 42 min
Overall bit rate : 9 166 kb/s
Encoded date : UTC 2017-11-07 19:42:21
Writing application : mkvmerge v17.0.0 ('Be Ur Friend') 64-bit
Writing library : libebml v1.3.5 + libmatroska v1.4.8

Video
ID : 1
Format : AVC
Format/Info : Advanced Video Codec
Format profile : High@L4.1
Format settings, CABAC : Yes
Format settings, ReFrames : 5 frames
Codec ID : V_MPEG4/ISO/AVC
Duration : 1 h 42 min
Bit rate : 7 660 kb/s
Width : 1 920 pixels
Height : 808 pixels
Display aspect ratio : 2.40:1
Frame rate mode : Constant
Frame rate : 23.976 (24000/1001) FPS
Color space : YUV
Chroma subsampling : 4:2:0
Bit depth : 8 bits
Scan type : Progressive
Bits/(Pixel*Frame) : 0.206
Stream size : 5.48 GiB (84%)
Writing library : x264 core 152 r2851 ba24899
Encoding settings : cabac=1 / ref=5 / deblock=1:2:1 / analyse=0x3:0x133 / me=umh / subme=9 / psy=1 / psy_rd=0.50:0.00 / mixed_ref=1 / me_range=16 / chroma_me=1 / trellis=2 / 8x8dct=1 / cqm=0 / deadzone=21,11 / fast_pskip=0 / chroma_qp_offset=-2 / threads=12 / lookahead_threads=1 / sliced_threads=0 / nr=0 / decimate=1 / interlaced=0 / bluray_compat=0 / constrained_intra=0 / bframes=3 / b_pyramid=2 / b_adapt=2 / b_bias=0 / direct=3 / weightb=1 / open_gop=0 / weightp=2 / keyint=250 / keyint_min=23 / scenecut=40 / intra_refresh=0 / rc_lookahead=60 / rc=2pass / mbtree=1 / bitrate=7660 / ratetol=1.0 / qcomp=0.60 / qpmin=10 / qpmax=69 / qpstep=4 / cplxblur=20.0 / qblur=0.5 / ip_ratio=1.40 / aq=1:0.70
Language : English
Default : Yes
Forced : No

Audio
ID : 2
Format : DTS
Format/Info : Digital Theater Systems
Mode : 16
Format settings, Endianness : Big
Codec ID : A_DTS
Duration : 1 h 42 min
Bit rate mode : Constant
Bit rate : 1 509 kb/s
Channel(s) : 6 channels
Channel positions : Front: L C R, Side: L R, LFE
Sampling rate : 48.0 kHz
Frame rate : 93.750 FPS (512 spf)
Bit depth : 16 bits
Compression mode : Lossy
Stream size : 1.08 GiB (16%)
Title : English DTS 1509 kbps
Language : English
Default : Yes
Forced : No




Screenshots

Cars 3 (2017) [3D]

Cars 3 (2017) [3D]

Cars 3 (2017) [3D]