Cars 3 (2017)

Posted By: JohnSmith
Cars 3 (2017)

Cars 3 (2017)
BDRip MD | AVI / XviD@1644 kb/s | 720x304 | 1h 42mn | 1.27 GB | Italian (dubbed): AC3, 128 kb/s (2 ch)
Genre: Animation | Adventure | Comedy | Family | Sport

Saetta McQueen è abituato al ruolo di giovane campione. Il tempo però passa e inizia oramai a sentirsi un po' obsoleto. Per competere nel mondo sempre più tecnologico delle corse automobilistiche, ha di conseguenza bisogno di aiuto. Fortunatamente in suo soccorso accorrerà l'ispanica Cruz Ramirez, che lo addestrerà ad affrontare i suoi nuovi avversari.




General
Complete name : C:\Cars.3.2017.iTALiAN.MD.BDRip.avi
Format : AVI
Format/Info : Audio Video Interleave
File size : 1.27 GiB
Duration : 1 h 42 min
Overall bit rate : 1 781 kb/s
Writing application : VirtualDubMod 1.5.10.3 | www.virtualdub-fr.org || (build 2550/release)
Writing library : VirtualDubMod build 2550/release

Video
ID : 0
Format : MPEG-4 Visual
Format profile : Advanced Simple@L5
Format settings, BVOP : 2
Format settings, QPel : No
Format settings, GMC : No warppoints
Format settings, Matrix : Default (MPEG)
Codec ID : XVID
Codec ID/Hint : XviD
Duration : 1 h 42 min
Bit rate : 1 644 kb/s
Width : 720 pixels
Height : 304 pixels
Display aspect ratio : 2.35:1
Frame rate : 23.976 (24000/1001) FPS
Color space : YUV
Chroma subsampling : 4:2:0
Bit depth : 8 bits
Scan type : Progressive
Compression mode : Lossy
Bits/(Pixel*Frame) : 0.313
Stream size : 1.18 GiB (92%)
Writing library : XviD 1.2.1 (UTC 2008-12-04)

Audio
ID : 1
Format : AC-3
Format/Info : Audio Coding 3
Format settings, Endianness : Big
Codec ID : 2000
Duration : 1 h 42 min
Bit rate mode : Constant
Bit rate : 128 kb/s
Channel(s) : 2 channels
Channel positions : Front: L R
Sampling rate : 48.0 kHz
Frame rate : 31.250 FPS (1536 spf)
Bit depth : 16 bits
Compression mode : Lossy
Delay relative to video : 720 ms
Stream size : 93.8 MiB (7%)
Alignment : Split accross interleaves
Interleave, duration : 42 ms (1.00 video frame)
Interleave, preload duratio : 500 ms
Service kind : Complete Main




Screenshots

Cars 3 (2017)

Cars 3 (2017)

Cars 3 (2017)