Cars 3 (2017)

Posted By: JohnSmith
720p (HD) / BDRip IMDb
Cars 3 (2017)

Cars 3 (2017)
BDRip | MKV / AVC@1687 kb/s | 848x352 | 1h 42mn | 1.35 GB
Italian (dubbed): AC3, 192 kb/s (2 ch) | Subtitles: Italian (forced, full)
BDRip 720p | MKV / AVC@3930 kb/s | 1280x536 | 1h 42mn | 2.95 GB
Italian (dubbed): AC3, 192 kb/s (2 ch) | Subtitles: Italian (forced, full)
Genre: Animation | Adventure | Comedy | Family | Sport

Saetta McQueen è abituato al ruolo di giovane campione. Il tempo però passa e inizia oramai a sentirsi un po' obsoleto. Per competere nel mondo sempre più tecnologico delle corse automobilistiche, ha di conseguenza bisogno di aiuto. Fortunatamente in suo soccorso accorrerà l'ispanica Cruz Ramirez, che lo addestrerà ad affrontare i suoi nuovi avversari.




General
Unique ID : 243900776242083722694291956891868772353 (0xB77D94B21645C0C9B82B845D38E8B801)
Complete name : A:\Cars.3.2017.iTA.Bluray.480p.x264-CYBER.mkv
Format : Matroska
Format version : Version 4 / Version 2
File size : 1.35 GiB
Duration : 1 h 42 min
Overall bit rate : 1 881 kb/s
Encoded date : UTC 2017-12-29 23:25:25
Writing application : mkvmerge v8.3.0 ('Over the Horizon') 64bit
Writing library : libebml v1.3.1 + libmatroska v1.4.2

Video
ID : 1
Format : AVC
Format/Info : Advanced Video Codec
Format profile : High@L4.1
Format settings, CABAC : Yes
Format settings, ReFrames : 5 frames
Codec ID : V_MPEG4/ISO/AVC
Duration : 1 h 42 min
Bit rate : 1 687 kb/s
Width : 848 pixels
Height : 352 pixels
Display aspect ratio : 2.40:1
Original display aspect rat : 2.40:1
Frame rate mode : Constant
Frame rate : 23.976 (24000/1001) FPS
Color space : YUV
Chroma subsampling : 4:2:0
Bit depth : 8 bits
Scan type : Progressive
Bits/(Pixel*Frame) : 0.236
Stream size : 1.21 GiB (90%)
Writing library : x264 core 152 r2851 ba24899
Language : English
Default : Yes
Forced : No

Audio
ID : 2
Format : AC-3
Format/Info : Audio Coding 3
Format settings, Endianness : Big
Codec ID : A_AC3
Duration : 1 h 42 min
Bit rate mode : Constant
Bit rate : 192 kb/s
Channel(s) : 2 channels
Channel positions : Front: L R
Sampling rate : 48.0 kHz
Frame rate : 31.250 FPS (1536 spf)
Bit depth : 16 bits
Compression mode : Lossy
Stream size : 141 MiB (10%)
Title : iTunes RESYNC
Language : Italian
Service kind : Complete Main
Default : Yes
Forced : No

Text #1
ID : 3
Format : UTF-8
Codec ID : S_TEXT/UTF8
Codec ID/Info : UTF-8 Plain Text
Duration : 1 h 18 min
Bit rate : 0 b/s
Count of elements : 8
Stream size : 367 Bytes (0%)
Title : FORCED
Language : Italian
Default : Yes
Forced : No

Text #2
ID : 4
Format : UTF-8
Codec ID : S_TEXT/UTF8
Codec ID/Info : UTF-8 Plain Text
Duration : 1 h 40 min
Bit rate : 74 b/s
Count of elements : 1364
Stream size : 54.7 KiB (0%)
Title : REGOLARI
Language : Italian
Default : No
Forced : No





General
Unique ID : 198911554895434896356329485189602161908 (0x95A4F8D40F49073D8F137317460D34F4)
Complete name : A:\Cars.3.2017.iTA.Bluray.720p.x264-CYBER.mkv
Format : Matroska
Format version : Version 4 / Version 2
File size : 2.95 GiB
Duration : 1 h 42 min
Overall bit rate : 4 121 kb/s
Encoded date : UTC 2017-12-29 23:25:01
Writing application : mkvmerge v8.3.0 ('Over the Horizon') 64bit
Writing library : libebml v1.3.1 + libmatroska v1.4.2

Video
ID : 1
Format : AVC
Format/Info : Advanced Video Codec
Format profile : High@L4.1
Format settings, CABAC : Yes
Format settings, ReFrames : 5 frames
Codec ID : V_MPEG4/ISO/AVC
Duration : 1 h 42 min
Bit rate : 3 927 kb/s
Width : 1 280 pixels
Height : 536 pixels
Display aspect ratio : 2.40:1
Frame rate mode : Constant
Frame rate : 23.976 (24000/1001) FPS
Color space : YUV
Chroma subsampling : 4:2:0
Bit depth : 8 bits
Scan type : Progressive
Bits/(Pixel*Frame) : 0.239
Stream size : 2.81 GiB (95%)
Writing library : x264 core 152 r2851 ba24899
Language : English
Default : Yes
Forced : No

Audio
ID : 2
Format : AC-3
Format/Info : Audio Coding 3
Format settings, Endianness : Big
Codec ID : A_AC3
Duration : 1 h 42 min
Bit rate mode : Constant
Bit rate : 192 kb/s
Channel(s) : 2 channels
Channel positions : Front: L R
Sampling rate : 48.0 kHz
Frame rate : 31.250 FPS (1536 spf)
Bit depth : 16 bits
Compression mode : Lossy
Stream size : 141 MiB (5%)
Title : iTunes RESYNC
Language : Italian
Service kind : Complete Main
Default : Yes
Forced : No

Text #1
ID : 3
Format : UTF-8
Codec ID : S_TEXT/UTF8
Codec ID/Info : UTF-8 Plain Text
Duration : 1 h 18 min
Bit rate : 0 b/s
Count of elements : 8
Stream size : 367 Bytes (0%)
Title : FORCED
Language : Italian
Default : Yes
Forced : No

Text #2
ID : 4
Format : UTF-8
Codec ID : S_TEXT/UTF8
Codec ID/Info : UTF-8 Plain Text
Duration : 1 h 40 min
Bit rate : 74 b/s
Count of elements : 1364
Stream size : 54.7 KiB (0%)
Title : REGOLARI
Language : Italian
Default : No
Forced : No




Screenshots BDRip

Cars 3 (2017)

Cars 3 (2017)

Cars 3 (2017)


Screenshots BDRip 720p

Cars 3 (2017)

Cars 3 (2017)

Cars 3 (2017)