Cars 3 (2017)

Posted By: Without
Cars 3 (2017)

Cars 3 (2017)
BRRip | AVI | 720x304 | XviD@1274 kb/s | English AC3@384 kb/s | 6 channels | 1 h 42 min | 1.19 GB
BDRip 720p | MKV | 1280x536 | AVC@4900 kb/s | English DTS@1509 kb/s
Subs: English | 6 channels | 1 h 42 min | 4.61 GB
BDRip 1080p | MKV | 1920x804 | AVC@11.8 Mb/s | English DTS-HD MA@1509 kb/s
Subs: English | 6 channels | 1 h 42 min | 11.6 GB
Genre: Animation, Adventure, Comedy

Lightning McQueen sets out to prove to a new generation of racers that he's still the best race car in the world.



General
Cars.3.2017.BRRip.XviD.AC3-EVO\Cars.3.2017.BRRip.XviD.AC3-EVO.avi
Format : AVI
Format/Info : Audio Video Interleave
File size : 1.19 GiB
Duration : 1 h 42 min
Overall bit rate : 1 667 kb/s
Writing library : VirtualDub build 32593/release

Video
ID : 0
Format : MPEG-4 Visual
Format profile : Advanced Simple@L5
Format settings, BVOP : 2
Format settings, QPel : No
Format settings, GMC : No warppoints
Format settings, Matrix : Default (H.263)
Muxing mode : Packed bitstream
Codec ID : XVID
Codec ID/Hint : XviD
Duration : 1 h 42 min
Bit rate : 1 274 kb/s
Width : 720 pixels
Height : 304 pixels
Display aspect ratio : 2.35:1
Frame rate : 23.976 (24000/1001) FPS
Color space : YUV
Chroma subsampling : 4:2:0
Bit depth : 8 bits
Scan type : Progressive
Compression mode : Lossy
Bits/(Pixel*Frame) : 0.243
Stream size : 933 MiB (76%)
Writing library : XviD 66

Audio
ID : 1
Format : AC-3
Format/Info : Audio Coding 3
Mode extension : CM (complete main)
Format settings, Endianness : Big
Codec ID : 2000
Duration : 1 h 42 min
Bit rate mode : Constant
Bit rate : 384 kb/s
Channel(s) : 6 channels
Channel positions : Front: L C R, Side: L R, LFE
Sampling rate : 48.0 kHz
Frame rate : 31.250 FPS (1536 spf)
Bit depth : 16 bits
Compression mode : Lossy
Stream size : 281 MiB (23%)
Alignment : Aligned on interleaves
Interleave, duration : 42 ms (1.00 video frame)
Interleave, preload duration : 512 ms

General
Cars.3.2017.720p.BluRay.x264.DTS-HDChina\Cars.3.2017.720p.BluRay.x264.DTS-HDChina.mkv
Format : Matroska
Format version : Version 2
File size : 4.61 GiB
Duration : 1 h 42 min
Overall bit rate : 6 441 kb/s
Movie name : Cars 3 2017 720p BluRay x264 DTS-HDChina
Encoded date : UTC 2017-10-25 22:29:00
Writing application : mkvmerge v5.8.0 ('No Sleep / Pillow') built on Sep 2 2012 15:37:04
Writing library : libebml v1.2.3 + libmatroska v1.3.0

Video
ID : 1
Format : AVC
Format/Info : Advanced Video Codec
Format profile : High@L4.1
Format settings, CABAC : Yes
Format settings, ReFrames : 12 frames
Muxing mode : Header stripping
Codec ID : V_MPEG4/ISO/AVC
Duration : 1 h 42 min
Bit rate : 4 900 kb/s
Width : 1 280 pixels
Height : 536 pixels
Display aspect ratio : 2.40:1
Frame rate mode : Constant
Frame rate : 23.976 (24000/1001) FPS
Color space : YUV
Chroma subsampling : 4:2:0
Bit depth : 8 bits
Scan type : Progressive
Bits/(Pixel*Frame) : 0.298
Stream size : 3.44 GiB (75%)
Title : avs @ HDChina
Writing library : x264 core 148 r2665kMod a01e339
Encoding settings : cabac=1 / ref=12 / deblock=1:-1:-1 / analyse=0x3:0x133 / me=umh / subme=11 / psy=1 / fade_compensate=0.00 / psy_rd=0.70:0.00 / mixed_ref=1 / me_range=48 / chroma_me=1 / trellis=2 / 8x8dct=1 / cqm=0 / deadzone=21,11 / fast_pskip=0 / chroma_qp_offset=-2 / threads=17 / lookahead_threads=2 / sliced_threads=0 / nr=0 / decimate=0 / interlaced=0 / bluray_compat=0 / constrained_intra=0 / fgo=0 / bframes=8 / b_pyramid=2 / b_adapt=2 / b_bias=0 / direct=3 / weightb=1 / open_gop=0 / weightp=2 / keyint=240 / keyint_min=24 / scenecut=40 / intra_refresh=0 / rc=2pass / mbtree=0 / bitrate=4900 / ratetol=1.0 / qcomp=0.70 / qpmin=0 / qpmax=69 / qpstep=4 / cplxblur=20.0 / qblur=0.5 / ip_ratio=1.10 / pb_ratio=1.20 / aq=3:1.10
Default : Yes
Forced : No

Audio
ID : 2
Format : DTS
Format/Info : Digital Theater Systems
Mode : 16
Format settings, Endianness : Big
Muxing mode : Header stripping
Codec ID : A_DTS
Duration : 1 h 42 min
Bit rate mode : Constant
Bit rate : 1 509 kb/s
Channel(s) : 6 channels
Channel positions : Front: L C R, Side: L R, LFE
Sampling rate : 48.0 kHz
Frame rate : 93.750 FPS (512 spf)
Bit depth : 24 bits
Compression mode : Lossy
Stream size : 1.08 GiB (23%)
Language : English
Default : Yes
Forced : No

Text #1
ID : 3
Format : PGS
Muxing mode : zlib
Codec ID : S_HDMV/PGS
Codec ID/Info : Picture based subtitle format used on BDs/HD-DVDs
Language : English
Default : Yes
Forced : No

Text #2
ID : 4
Format : PGS
Muxing mode : zlib
Codec ID : S_HDMV/PGS
Codec ID/Info : Picture based subtitle format used on BDs/HD-DVDs
Language : English
Default : No
Forced : No

Menu
00:00:00.000 : en:Champ McQueen
00:04:57.255 : en:Storm Front
00:10:54.988 : en:Crash
00:13:59.422 : en:Wake-up Call
00:18:15.344 : en:Phone Call
00:21:07.641 : en:Modern Training
00:34:08.880 : en:Deal
00:37:52.103 : en:Beach
00:42:44.812 : en:Crazy Eight
00:49:44.398 : en:Cruz's Dream
00:53:57.734 : en:Facetime
00:58:17.702 : en:Olive Branch
00:59:27.522 : en:Smokey
01:02:15.940 : en:Hud's Win
01:06:35.533 : en:It's Over
01:08:33.109 : en:Old School Training
01:15:48.126 : en:Florida Arrival
01:20:57.852 : en:Pit Stop
01:29:42.418 : en:Victory Lane
01:32:17.031 : en:Epilogue
01:34:00.092 : en:End Credits

General
Cars.3.2017.REPACK.1080p.BluRay.x264.DTS-HD.MA.7.1-HDChina\Cars.3.2017.REPACK.1080p.BluRay.x264.DTS-HD.MA.7.1-HDChina.mkv
Format : Matroska
Format version : Version 2
File size : 11.6 GiB
Duration : 1 h 42 min
Overall bit rate : 16.2 Mb/s
Movie name : Cars 3 2017 1080p BluRay x264 DTS-HD MA 7.1-HDChina
Encoded date : UTC 2017-10-26 06:13:23
Writing application : mkvmerge v5.8.0 ('No Sleep / Pillow') built on Sep 2 2012 15:37:04
Writing library : libebml v1.2.3 + libmatroska v1.3.0

Video
ID : 1
Format : AVC
Format/Info : Advanced Video Codec
Format profile : High@L4.1
Format settings, CABAC : Yes
Format settings, ReFrames : 5 frames
Muxing mode : Header stripping
Codec ID : V_MPEG4/ISO/AVC
Duration : 1 h 42 min
Nominal bit rate : 11.8 Mb/s
Width : 1 920 pixels
Height : 804 pixels
Display aspect ratio : 2.40:1
Frame rate mode : Constant
Frame rate : 23.976 (24000/1001) FPS
Color space : YUV
Chroma subsampling : 4:2:0
Bit depth : 8 bits
Scan type : Progressive
Bits/(Pixel*Frame) : 0.319
Title : avs @ HDChina
Writing library : x264 core 148 r2665kMod a01e339
Encoding settings : cabac=1 / ref=5 / deblock=1:-1:-1 / analyse=0x3:0x133 / me=umh / subme=11 / psy=1 / fade_compensate=0.00 / psy_rd=0.70:0.00 / mixed_ref=1 / me_range=48 / chroma_me=1 / trellis=2 / 8x8dct=1 / cqm=0 / deadzone=21,11 / fast_pskip=0 / chroma_qp_offset=-2 / threads=24 / lookahead_threads=4 / sliced_threads=0 / nr=0 / decimate=0 / interlaced=0 / bluray_compat=0 / constrained_intra=0 / fgo=0 / bframes=8 / b_pyramid=2 / b_adapt=2 / b_bias=0 / direct=3 / weightb=1 / open_gop=0 / weightp=2 / keyint=240 / keyint_min=24 / scenecut=40 / intra_refresh=0 / rc=2pass / mbtree=0 / bitrate=11800 / ratetol=1.0 / qcomp=0.70 / qpmin=0 / qpmax=69 / qpstep=4 / cplxblur=20.0 / qblur=0.5 / ip_ratio=1.10 / pb_ratio=1.20 / aq=3:1.10
Default : Yes
Forced : No

Audio
ID : 2
Format : DTS
Format/Info : Digital Theater Systems
Format profile : MA / Core
Mode : 16
Format settings, Endianness : Big
Muxing mode : Header stripping
Codec ID : A_DTS
Duration : 1 h 42 min
Bit rate mode : Variable / Constant
Bit rate : Unknown / 1 509 kb/s
Channel(s) : 8 channels / 6 channels
Channel positions : Front: L C R, Side: L R, Back: L R, LFE / Front: L C R, Side: L R, LFE
Sampling rate : 48.0 kHz
Frame rate : 93.750 FPS (512 spf)
Bit depth : 24 bits
Compression mode : Lossless / Lossy
Language : English
Default : Yes
Forced : No

Text #1
ID : 3
Format : PGS
Muxing mode : zlib
Codec ID : S_HDMV/PGS
Codec ID/Info : Picture based subtitle format used on BDs/HD-DVDs
Language : English
Default : Yes
Forced : No

Text #2
ID : 4
Format : PGS
Muxing mode : zlib
Codec ID : S_HDMV/PGS
Codec ID/Info : Picture based subtitle format used on BDs/HD-DVDs
Language : English
Default : No
Forced : No

Menu
00:00:00.000 : en:Champ McQueen
00:04:57.255 : en:Storm Front
00:10:54.988 : en:Crash
00:13:59.422 : en:Wake-up Call
00:18:15.344 : en:Phone Call
00:21:07.641 : en:Modern Training
00:34:08.880 : en:Deal
00:37:52.103 : en:Beach
00:42:44.812 : en:Crazy Eight
00:49:44.398 : en:Cruz's Dream
00:53:57.734 : en:Facetime
00:58:17.702 : en:Olive Branch
00:59:27.522 : en:Smokey
01:02:15.940 : en:Hud's Win
01:06:35.533 : en:It's Over
01:08:33.109 : en:Old School Training
01:15:48.126 : en:Florida Arrival
01:20:57.852 : en:Pit Stop
01:29:42.418 : en:Victory Lane
01:32:17.031 : en:Epilogue
01:34:00.092 : en:End Credits


BRRip Screenshots

Cars 3 (2017)

Cars 3 (2017)

Cars 3 (2017)


BDRip 720p Screenshots

Cars 3 (2017)

Cars 3 (2017)

Cars 3 (2017)


BDRip 1080p Screenshots

Cars 3 (2017)

Cars 3 (2017)

Cars 3 (2017)


Come Visit My Blog (•‿•)