Celtic Soul (2016)

Posted By: Without
SD / DVDRip IMDb
Celtic Soul (2016)

Celtic Soul (2016)
DVDRip | MKV | 720x406 | AVC@1243 kb/s | English AAC@92.2 kb/s | 2 channels | 1 h 23 min | 803 MB
Genre: Documentary

Celtic Soul follows Canadian actor and funny man Jay Baruchel on an epic road trip through Canada, Ireland and Scotland with his new friend, well-known Irish soccer journalist Eoin O'Callaghan. It's a story that spans 200 years of colorful history and that will take the duo eastward from Montreal to Westport, Ireland - where Jay's ancestors set sail for Canada, like so many others - and finally Glasgow, where Jay will fulfill a lifelong dream: to watch a match at Celtic Park, one of the wildest and most hallowed grounds in world football.



General
Celtic.Soul.2016.DVDRip.x264-RedBlade.mkv
Format : Matroska
Format version : Version 2
File size : 803 MiB
Duration : 1 h 23 min
Overall bit rate : 1 338 kb/s
Encoded date : UTC 2018-02-22 01:49:17
Writing application : mkvmerge v17.0.0 ('Be Ur Friend') 64-bit
Writing library : libebml v1.3.5 + libmatroska v1.4.8

Video
ID : 1
Format : AVC
Format/Info : Advanced Video Codec
Format profile : High@L3.1
Format settings : CABAC / 5 Ref Frames
Format settings, CABAC : Yes
Format settings, RefFrames : 5 frames
Codec ID : V_MPEG4/ISO/AVC
Duration : 1 h 23 min
Bit rate : 1 243 kb/s
Width : 720 pixels
Height : 406 pixels
Display aspect ratio : 16:9
Frame rate mode : Constant
Frame rate : 23.976 (24000/1001) FPS
Color space : YUV
Chroma subsampling : 4:2:0
Bit depth : 8 bits
Scan type : Progressive
Bits/(Pixel*Frame) : 0.177
Stream size : 746 MiB (93%)
Writing library : x264 core 155 r2901 7d0ff22
Encoding settings : cabac=1 / ref=5 / deblock=1:0:0 / analyse=0x3:0x113 / me=hex / subme=8 / psy=1 / psy_rd=1.00:0.00 / mixed_ref=1 / me_range=16 / chroma_me=1 / trellis=2 / 8x8dct=1 / cqm=0 / deadzone=21,11 / fast_pskip=1 / chroma_qp_offset=-2 / threads=12 / lookahead_threads=2 / sliced_threads=0 / nr=0 / decimate=1 / interlaced=0 / bluray_compat=0 / constrained_intra=0 / bframes=3 / b_pyramid=2 / b_adapt=1 / b_bias=0 / direct=3 / weightb=1 / open_gop=0 / weightp=2 / keyint=240 / keyint_min=23 / scenecut=40 / intra_refresh=0 / rc_lookahead=50 / rc=crf / mbtree=1 / crf=19.0 / qcomp=0.60 / qpmin=10 / qpmax=51 / qpstep=4 / vbv_maxrate=17500 / vbv_bufsize=17500 / crf_max=0.0 / nal_hrd=none / filler=0 / ip_ratio=1.40 / aq=1:1.00
Language : English
Default : Yes
Forced : No

Audio
ID : 2
Format : AAC
Format/Info : Advanced Audio Codec
Format profile : LC
Codec ID : A_AAC-2
Duration : 1 h 23 min
Bit rate : 92.2 kb/s
Channel(s) : 2 channels
Channel positions : Front: L R
Sampling rate : 48.0 kHz
Frame rate : 46.875 FPS (1024 SPF)
Compression mode : Lossy
Delay relative to video : 9 ms
Stream size : 55.3 MiB (7%)
Language : English
Default : Yes
Forced : No


DVDRip Screenshots

Celtic Soul (2016)

Celtic Soul (2016)

Celtic Soul (2016)

Celtic Soul (2016)


Come Visit My Blog (•‿•)