Channel 4 - Random Acts Series 4 (2017)

Posted By: notbanned
1080p (FullHD) / HDTV IMDb
Channel 4 - Random Acts Series 4 (2017)

Channel 4 - Random Acts Series 4 (2017)
HDTV | 1920x1080 | .MKV/AVC @ 3439 Kbps | 6x~24min | 3.98 GiB
Audio: English AAC 132 kbps, 2 channels | Subs: English
Genre: Documentary

Channel 4's late-night, post-pub serving of the world's craziest and most creative short films returns for a fourth series, once more curated and hosted by Zawe Ashton. Featuring brand new talent and experimental work from more established names; the shorts are a heady mixture of music, animation, dance, visual art, spoken word and uncategorisable creative brilliance.
Part 1:
Monica Dolan battles a killer houseplant, poet Simon Armitage shares his final words, and Alex Bag leaves a big surprise in your adult diaper. Plus award-winning dance from Antoine Marc.

Part 2:
Caleb Femi smashes preconceptions, dancing meets architecture at the Barbican, there's a disturbing kids-only dystopia in Aaron Dunleavy's Strays, and trees fight back in a trippy animation.

Part 3:
Laura Marling catches comedian Tim Key's eye, a performance poet has a stern word with her pelvis pal in Ode to a Fuckboi, and the #TeamIndus Indian space mission inspires dance from celebrated choreographer Hemabharathy Palani. Plus: find out exactly how to be rad.

Part 4:
Robert Sheehan is down and out in LA, Duncan Cowles flogs stock footage for cold hard cash, and we're feeling thirsty in an animated post-apocalypse. And, in a single-take experiment, a Chelsea supporter enters frame left.

Part 5:
Alain de Botton explains how to recount your dreams. Plus: the greatest library you've never seen, a gruesome waking nightmare set in a circus, and mass movement from the Sadler's Wells National Youth Dance Company.

Part 6:
Heather Phillipson's love letter to her pet pooch. Non-binary gender conforming artist Depresstival battles a cardboard robot. A teenager finger-swipes her way into digital oblivion. Plus: a sexy doughnut that's just asking to be eaten.

General
Unique ID : 250275569623006777868273580088080394584 (0xBC4952468528AC118F8BAB28E056E958)
Complete name : Ch4.Random.Acts.Series.4.1of6.1080p.mkv
Format : Matroska
Format version : Version 4 / Version 2
File size : 614 MiB
Duration : 24 min 1 s
Overall bit rate : 3 575 kb/s

Video
ID : 1
Format : AVC
Format/Info : Advanced Video Codec
Format profile : High@L4.1
Format settings, CABAC : Yes
Format settings, ReFrames : 4 frames
Codec ID : V_MPEG4/ISO/AVC
Duration : 24 min 1 s
Bit rate : 3 439 kb/s
Width : 1 920 pixels
Height : 1 080 pixels
Display aspect ratio : 16:9
Frame rate mode : Constant
Frame rate : 25.000 FPS
Color space : YUV
Chroma subsampling : 4:2:0
Bit depth : 8 bits
Scan type : Progressive
Bits/(Pixel*Frame) : 0.066
Stream size : 591 MiB (96%)
Encoding settings : cabac=1 / ref=4 / deblock=1:0:0 / analyse=0x3:0x113 / me=umh / subme=9 / psy=1 / psy_rd=1.00:0.00 / mixed_ref=1 / me_range=32 / chroma_me=1 / trellis=1 / 8x8dct=1 / cqm=0 / deadzone=21,11 / fast_pskip=0 / chroma_qp_offset=-2 / threads=3 / lookahead_threads=1 / sliced_threads=0 / nr=0 / decimate=1 / interlaced=0 / bluray_compat=0 / constrained_intra=0 / bframes=6 / b_pyramid=2 / b_adapt=2 / b_bias=0 / direct=1 / weightb=1 / open_gop=0 / weightp=2 / keyint=250 / keyint_min=25 / scenecut=40 / intra_refresh=0 / rc_lookahead=40 / rc=crf / mbtree=1 / crf=21.0 / qcomp=0.60 / qpmin=0 / qpmax=69 / qpstep=4 / ip_ratio=1.40 / aq=1:1.00
Language : English
Default : Yes
Forced : No
Color range : Limited
Color primaries : BT.709
Transfer characteristics : BT.709
Matrix coefficients : BT.709

Audio
ID : 2
Format : AAC
Format/Info : Advanced Audio Codec
Format profile : LC
Codec ID : A_AAC
Duration : 24 min 1 s
Bit rate : 132 kb/s
Channel(s) : 2 channels
Channel positions : Front: L R
Sampling rate : 48.0 kHz
Frame rate : 46.875 FPS (1024 spf)
Compression mode : Lossy
Delay relative to video : 9 ms
Stream size : 23.0 MiB (4%)
Language : English
Default : Yes
Forced : No

Text
ID : 3
Format : UTF-8
Codec ID : S_TEXT/UTF8
Codec ID/Info : UTF-8 Plain Text
Duration : 23 min 48 s
Bit rate : 52 b/s
Count of elements : 265
Stream size : 9.08 KiB (0%)
Language : English
Default : No
Forced : No


Screenshots:

Channel 4 - Random Acts Series 4 (2017)

Channel 4 - Random Acts Series 4 (2017)

Channel 4 - Random Acts Series 4 (2017)

Channel 4 - Random Acts Series 4 (2017)