Arte - Chemical Weapons: An Insidious War (2015)

Posted By: Tutorial
720p (HD) / HDTV
Arte - Chemical Weapons: An Insidious War (2015)

Arte - Chemical Weapons: An Insidious War (2015)
HDTV | 1280 x 720 | .MKV/AVC @ 2513 Kbps | 52 min 26 s | 1.08 GB
Audio: English AC-3 384 Kbps, 6 channels | Subs: None
Genre: Documentary

This documentary tells the story of the past, present, and future of chemical weapons with unprecedented access to weapons inspectors, government officials, and the personal testimony of those who have experienced this horror. The film explains how chemical weapons were developed more than 100 years ago, how hard they are to control, how dangerous they are, and how international efforts to control them are ushering a new era of co-operation to counter terrorist plots.

General
Unique ID : 219758275161653986826633854845036072571 (0xA553E77DFB35C06F891248C56F710E7B)
Complete name : ARTE.Chemical.Weapons.An.Insidious.War.mkv
Format : Matroska
Format version : Version 4 / Version 2
File size : 1.08 GiB
Duration : 52 min 26 s
Overall bit rate : 2 956 kb/s
Encoded date : UTC 2016-08-21 15:31:42
Writing application : mkvmerge v6.9.1 ('Blue Panther') 64bit built on Apr 18 2014 18:23:38
Writing library : libebml v1.3.0 + libmatroska v1.4.1

Video
ID : 1
Format : AVC
Format/Info : Advanced Video Codec
Format profile : High@L4.1
Format settings, CABAC : Yes
Format settings, ReFrames : 5 frames
Codec ID : V_MPEG4/ISO/AVC
Duration : 52 min 26 s
Bit rate : 2 513 kb/s
Width : 1 280 pixels
Height : 720 pixels
Display aspect ratio : 16:9
Frame rate mode : Constant
Frame rate : 29.970 (30000/1001) FPS
Color space : YUV
Chroma subsampling : 4:2:0
Bit depth : 8 bits
Scan type : Progressive
Bits/(Pixel*Frame) : 0.091
Stream size : 943 MiB (85%)
Writing library : x264 core 148 r2638 7599210
Encoding settings : cabac=1 / ref=5 / deblock=1:-1:-1 / analyse=0x3:0x133 / me=esa / subme=7 / psy=1 / psy_rd=1.00:0.00 / mixed_ref=1 / me_range=24 / chroma_me=1 / trellis=2 / 8x8dct=1 / cqm=0 / deadzone=21,11 / fast_pskip=0 / chroma_qp_offset=-2 / threads=6 / lookahead_threads=1 / sliced_threads=0 / nr=0 / decimate=1 / interlaced=0 / bluray_compat=0 / constrained_intra=0 / bframes=5 / b_pyramid=0 / b_adapt=2 / b_bias=0 / direct=3 / weightb=1 / open_gop=0 / weightp=2 / keyint=300 / keyint_min=29 / scenecut=40 / intra_refresh=0 / rc_lookahead=60 / rc=crf / mbtree=1 / crf=20.0 / qcomp=0.60 / qpmin=10 / qpmax=51 / qpstep=4 / vbv_maxrate=62500 / vbv_bufsize=78125 / crf_max=0.0 / nal_hrd=none / filler=0 / ip_ratio=1.40 / aq=1:1.05
Language : English
Default : Yes
Forced : No

Audio
ID : 2
Format : AC-3
Format/Info : Audio Coding 3
Format settings, Endianness : Big
Codec ID : A_AC3
Duration : 52 min 26 s
Bit rate mode : Constant
Bit rate : 384 kb/s
Channel(s) : 6 channels
Channel positions : Front: L C R, Side: L R, LFE
Sampling rate : 48.0 kHz
Frame rate : 31.250 FPS (1536 spf)
Bit depth : 16 bits
Compression mode : Lossy
Stream size : 144 MiB (13%)
Service kind : Complete Main
Default : Yes
Forced : No
Screenshots

Arte - Chemical Weapons: An Insidious War (2015)

Arte - Chemical Weapons: An Insidious War (2015)

Welcome to my blog - daily update!

Arte - Chemical Weapons: An Insidious War (2015)