Clive Davis: The Soundtrack of Our Lives (2017)

Posted By: JohnSmith
720p (HD) / WEB-DL IMDb
Clive Davis: The Soundtrack of Our Lives (2017)

Clive Davis: The Soundtrack of Our Lives (2017)
WEB-DL 720p | MKV / AVC@4030 kb/s | 1280x530 | 2h 4mn | 3.60 GB
English: AAC, 122 kb/s (2 ch) | Subtitles: English
Genre: Documentary

A look at the life and work of music producer, Clive Davis.

IMDB - 2 wins.



General
Unique ID : 180385104505675079654678235337100695917 (0x87B4E84D427E398BB6C2A9A095D9196D)
Complete name : D:\Downloads\Clive.Davis.The.Soundtrack.of.Our.Lives.2017.WEB-DL.720p.h264.AAC-DEEP.mkv
Format : Matroska
Format version : Version 4 / Version 2
File size : 3.60 GiB
Duration : 2 h 4 min
Overall bit rate : 4 154 kb/s
Encoded date : UTC 2018-01-02 11:31:04
Writing application : mkvmerge v14.0.0 ('Flow') 64bit
Writing library : libebml v1.3.4 + libmatroska v1.4.5

Video
ID : 1
Format : AVC
Format/Info : Advanced Video Codec
Format profile : Main@L3.1
Format settings, CABAC : No
Format settings, ReFrames : 2 frames
Codec ID : V_MPEG4/ISO/AVC
Duration : 2 h 4 min
Bit rate : 4 029 kb/s
Width : 1 280 pixels
Height : 530 pixels
Display aspect ratio : 2.40:1
Frame rate mode : Constant
Frame rate : 23.976 (23976/1000) FPS
Color space : YUV
Chroma subsampling : 4:2:0
Bit depth : 8 bits
Scan type : Progressive
Bits/(Pixel*Frame) : 0.248
Stream size : 3.49 GiB (97%)
Language : English
Default : No
Forced : No
Color range : Limited
Color primaries : BT.709
Transfer characteristics : BT.709
Matrix coefficients : BT.709

Audio
ID : 2
Format : AAC
Format/Info : Advanced Audio Codec
Format profile : LC
Codec ID : A_AAC
Duration : 2 h 4 min
Bit rate : 122 kb/s
Channel(s) : 2 channels
Channel positions : Front: L R
Sampling rate : 48.0 kHz
Frame rate : 46.875 FPS (1024 spf)
Compression mode : Lossy
Delay relative to video : -42 ms
Stream size : 109 MiB (3%)
Language : English
Default : No
Forced : No

Text #1
ID : 3
Format : UTF-8
Codec ID : S_TEXT/UTF8
Codec ID/Info : UTF-8 Plain Text
Duration : 1 h 55 min
Bit rate : 87 b/s
Count of elements : 1565
Stream size : 73.6 KiB (0%)
Language : English
Default : No
Forced : No

Text #2
ID : 4
Format : UTF-8
Codec ID : S_TEXT/UTF8
Codec ID/Info : UTF-8 Plain Text
Duration : 2 h 3 min
Bit rate : 109 b/s
Count of elements : 2041
Stream size : 98.6 KiB (0%)
Title : SDH
Language : English
Default : No
Forced : No




Screenshots

Clive Davis: The Soundtrack of Our Lives (2017)

Clive Davis: The Soundtrack of Our Lives (2017)

Clive Davis: The Soundtrack of Our Lives (2017)