Subcategories

Cobra Woman (1944)

Posted By: Without
Cobra Woman (1944)

Cobra Woman (1944)
DVDRip | AVI | 608×448 | XviD@1457 Kbps | English MP3@80 Kbps | 1 channels | 01:07:28 | 746 MB
Genre: Adventure | Drama

Upon discovering his fiancée Tollea has been kidnaped, Ramu and his friend Kado set out for a Pacific isle where all strangers are to be killed on arrival and the inhabitants, who are frequently sacrificed to an angry volcano god, worship the cobra. The island is ruled over by Tollea's evil twin Naja, the Cobra Woman, who, besides having designs on her new prisoner Ramu, also desires to eliminate any competition from her benevolent sister.



General
Complete name : Cobra Woman (1944).avi
Format : AVI
Format/Info : Audio Video Interleave
File size : 746 MiB
Duration : 1h 7mn
Overall bit rate : 1 547 Kbps
Writing application : VirtualDubMod 1.5.10.2 (build 2540/release)
Writing library : VirtualDubMod build 2540/release

Video
ID : 0
Format : MPEG-4 Visual
Format profile : Advanced Simple@L5
Format settings, BVOP : 2
Format settings, QPel : No
Format settings, GMC : No warppoints
Format settings, Matrix : Default (MPEG)
Codec ID : XVID
Codec ID/Hint : XviD
Duration : 1h 7mn
Bit rate : 1 457 Kbps
Width : 608 pixels
Height : 448 pixels
Display aspect ratio : 4:3
Frame rate : 25.000 fps
Color space : YUV
Chroma subsampling : 4:2:0
Bit depth : 8 bits
Scan type : Progressive
Compression mode : Lossy
Bits/(Pixel*Frame) : 0.214
Stream size : 703 MiB (94%)
Writing library : XviD 1.1.0 (UTC 2005-11-22)

Audio
ID : 1
Format : MPEG Audio
Format version : Version 1
Format profile : Layer 3
Codec ID : 55
Codec ID/Hint : MP3
Duration : 1h 7mn
Bit rate mode : Constant
Bit rate : 80.0 Kbps
Channel(s) : 1 channel
Sampling rate : 48.0 KHz
Compression mode : Lossy
Stream size : 38.6 MiB (5%)
Alignment : Aligned on interleaves
Interleave, duration : 40 ms (1.00 video frame)
Interleave, preload duration : 504 ms



Screenshots

Cobra Woman (1944)

Cobra Woman (1944)

Cobra Woman (1944)

Cobra Woman (1944)

Cobra Woman (1944)


Come Visit My Blog (•‿•)