Coco (2017)

Posted By: JohnSmith
720p (HD) / BDRip IMDb
Coco (2017)

Coco (2017)
BDRip | MKV / AVC@1626 kb/s | 848x352 | 1h 45mn | 1.57 GB
Italian (dubbed): AC3, 512 kb/s (6 ch) | Subtitles: Italian (forced, full)
BDRip 720p | MKV / AVC@3040 kb/s | 1280x534 | 1h 45mn | 2.89 GB
Italian (dubbed): E-AC3, 896 kb/s (8 ch) | Subtitles: Italian (forced, full)
Genre: Animation | Adventure | Comedy | Family | Fantasy | Music | Mystery

Sebbene la sua famiglia da generazioni sia contraria alla musica a causa di una sorta di maledizione, Miguel sogna di divenire un musicista come il suo idolo Ernesto de la Cruz. Nel tentativo di dimostrare il suo talento, il piccolo Miguel si ritrova nella colorata Terra dell'Aldilà in seguito a una misteriosa catena di eventi. Avrà modo così di incontrare diversi antenati deceduti, come la bisnonna Imelda e l'affascinante imbroglione Hector. Con quest'ultimo, poi, partirà alla volta di uno straordinario viaggio allo scopo di trovare Ernesto, guadagnarsi la benedizione della famiglia e tornare al Mondo dei Vivi prima che sia troppo tardi.

IMDB - Top Rated Movies #56 | Won 2 Oscars. Another 85 wins & 26 nominations.



General
Unique ID : 220349809242606324913168480589852932956 (0xA5C5D45FC019E62396BE111699DF7B5C)
Complete name : A:\Coco.2017.iTA.Bluray.480p.x264-CYBER.mkv
Format : Matroska
Format version : Version 4 / Version 2
File size : 1.57 GiB
Duration : 1 h 45 min
Overall bit rate : 2 140 kb/s
Encoded date : UTC 2018-03-16 05:48:05
Writing application : mkvmerge v8.3.0 ('Over the Horizon') 64bit
Writing library : libebml v1.3.1 + libmatroska v1.4.2

Video
ID : 1
Format : AVC
Format/Info : Advanced Video Codec
Format profile : High@L4.1
Format settings, CABAC : Yes
Format settings, ReFrames : 5 frames
Codec ID : V_MPEG4/ISO/AVC
Duration : 1 h 45 min
Bit rate : 1 626 kb/s
Width : 848 pixels
Height : 352 pixels
Display aspect ratio : 2.40:1
Original display aspect rat : 2.40:1
Frame rate mode : Constant
Frame rate : 23.976 (24000/1001) FPS
Color space : YUV
Chroma subsampling : 4:2:0
Bit depth : 8 bits
Scan type : Progressive
Bits/(Pixel*Frame) : 0.227
Stream size : 1.19 GiB (76%)
Writing library : x264 core 152 r2851 ba24899
Language : English
Default : Yes
Forced : No

Audio
ID : 2
Format : AC-3
Format/Info : Audio Coding 3
Format settings, Endianness : Big
Codec ID : A_AC3
Duration : 1 h 45 min
Bit rate mode : Constant
Bit rate : 512 kb/s
Channel(s) : 6 channels
Channel positions : Front: L C R, Side: L R, LFE
Sampling rate : 48.0 kHz
Frame rate : 31.250 FPS (1536 spf)
Bit depth : 16 bits
Compression mode : Lossy
Stream size : 385 MiB (24%)
Title : AC3 512Kbps (core)
Language : Italian
Service kind : Complete Main
Default : Yes
Forced : No

Text #1
ID : 3
Format : UTF-8
Codec ID : S_TEXT/UTF8
Codec ID/Info : UTF-8 Plain Text
Duration : 1 h 29 min
Bit rate : 0 b/s
Count of elements : 10
Stream size : 131 Bytes (0%)
Title : FORCED
Language : Italian
Default : Yes
Forced : No

Text #2
ID : 4
Format : UTF-8
Codec ID : S_TEXT/UTF8
Codec ID/Info : UTF-8 Plain Text
Duration : 1 h 34 min
Bit rate : 63 b/s
Count of elements : 1175
Stream size : 44.2 KiB (0%)
Title : REGOLARI
Language : Italian
Default : No
Forced : No





General
Unique ID : 172740313537254715863884027862263453992 (0x81F49301AEBC6A248D523086E6BED928)
Complete name : A:\Coco.2017.iTA.Bluray.720p.x264-CYBER.mkv
Format : Matroska
Format version : Version 4 / Version 2
File size : 2.89 GiB
Duration : 1 h 45 min
Overall bit rate : 3 942 kb/s
Encoded date : UTC 2018-03-16 05:47:26
Writing application : mkvmerge v8.3.0 ('Over the Horizon') 64bit
Writing library : libebml v1.3.1 + libmatroska v1.4.2

Video
ID : 1
Format : AVC
Format/Info : Advanced Video Codec
Format profile : High@L4.1
Format settings, CABAC : Yes
Format settings, ReFrames : 5 frames
Codec ID : V_MPEG4/ISO/AVC
Duration : 1 h 45 min
Bit rate : 3 044 kb/s
Width : 1 280 pixels
Height : 534 pixels
Display aspect ratio : 2.40:1
Original display aspect rat : 2.40:1
Frame rate mode : Constant
Frame rate : 23.976 (24000/1001) FPS
Color space : YUV
Chroma subsampling : 4:2:0
Bit depth : 8 bits
Scan type : Progressive
Bits/(Pixel*Frame) : 0.186
Stream size : 2.23 GiB (77%)
Writing library : x264 core 152 r2851 ba24899
Language : English
Default : Yes
Forced : No

Audio
ID : 2
Format : E-AC-3
Format/Info : Enhanced Audio Coding 3
Format settings, Endianness : Big
Codec ID : A_EAC3
Duration : 1 h 45 min
Bit rate mode : Constant
Bit rate : 500 b/s
Channel(s) : 6 channels
Channel positions : Front: L C R, Side: L R, LFE
Sampling rate : 48.0 kHz
Frame rate : 187.500 FPS (256 spf)
Compression mode : Lossy
Stream size : 673 MiB (23%)
Title : E-AC3 896Kbps 7.1
Language : Italian
Service kind : Complete Main
Default : Yes
Forced : No

Text #1
ID : 3
Format : UTF-8
Codec ID : S_TEXT/UTF8
Codec ID/Info : UTF-8 Plain Text
Duration : 1 h 29 min
Bit rate : 0 b/s
Count of elements : 10
Stream size : 131 Bytes (0%)
Title : FORCED
Language : Italian
Default : Yes
Forced : No

Text #2
ID : 4
Format : UTF-8
Codec ID : S_TEXT/UTF8
Codec ID/Info : UTF-8 Plain Text
Duration : 1 h 34 min
Bit rate : 63 b/s
Count of elements : 1175
Stream size : 44.2 KiB (0%)
Title : REGOLARI
Language : Italian
Default : No
Forced : No




Screenshots BDRip

Coco (2017)

Coco (2017)

Coco (2017)


Screenshots BDRip 720p

Coco (2017)

Coco (2017)

Coco (2017)