Cold Tango / Kholodnoe tango / Холодное танго (2017)

Posted By: Nedulow
1080p (FullHD) / BDRip IMDb
Cold Tango / Kholodnoe tango / Холодное танго (2017)

Cold Tango / Kholodnoe tango / Холодное танго (2017)
BDRip | MKV / AVC@2541 kb/s | 1024x552 | 1h 46mn
Russian (Русский): AC3, 384 kb/s (6 ch) | 2.18 GB
BDRip 1080p | MKV / AVC@12.3 Mb/s | 1920x 040 | 1h 46mn
Russian (Русский): DTS, 1509 kb/s (6 ch) / AC3, 640 kb/s (6 ch) | 10.7 GB
Genre: Drama, History, War

He miraculously escaped death to return to the house where lives the love of his life. But the hope of happiness turns into a terrible discovery. His beloved is the daughter of his enemy.



General
Unique ID : 251563382041013470611653340056132244951 (0xBD4158546FF4D80EA96A5A6CDDB7D5D7)
Complete name : C:\Cold.Tango.2017.BDRip.mkv
Format : Matroska
Format version : Version 2
File size : 2.18 GiB
Duration : 1 h 46 min
Overall bit rate : 2 927 kb/s
Movie name : Холодное танго (2017) BDRip-AVC | <VIRUS> [All.Films][RG][rutracker.org]
Encoded date : UTC 2018-12-14 10:14:17
Writing application : mkvmerge v6.9.1 ('Blue Panther') 32bit built on Apr 18 2014 18:15:44
Writing library : libebml v1.3.0 + libmatroska v1.4.1

Video
ID : 1
Format : AVC
Format/Info : Advanced Video Codec
Format profile : High@L4.1
Format settings : CABAC / 11 Ref Frames
Format settings, CABAC : Yes
Format settings, Reference : 11 frames
Codec ID : V_MPEG4/ISO/AVC
Duration : 1 h 46 min
Bit rate : 2 541 kb/s
Width : 1 024 pixels
Height : 552 pixels
Display aspect ratio : 1.85:1
Frame rate mode : Constant
Frame rate : 24.000 FPS
Color space : YUV
Chroma subsampling : 4:2:0
Bit depth : 8 bits
Scan type : Progressive
Bits/(Pixel*Frame) : 0.187
Stream size : 1.85 GiB (85%)
Writing library : x264 core 157 r2935 545de2f
Encoding settings : cabac=1 / ref=11 / deblock=1:-2:-1 / analyse=0x3:0x113 / me=umh / subme=11 / psy=1 / psy_rd=1.05:0.05 / mixed_ref=1 / me_range=42 / chroma_me=1 / trellis=2 / 8x8dct=1 / cqm=0 / deadzone=21,11 / fast_pskip=0 / chroma_qp_offset=-3 / threads=6 / lookahead_threads=1 / sliced_threads=0 / nr=0 / decimate=0 / interlaced=0 / bluray_compat=0 / constrained_intra=0 / bframes=14 / b_pyramid=2 / b_adapt=2 / b_bias=0 / direct=3 / weightb=1 / open_gop=0 / weightp=2 / keyint=240 / keyint_min=24 / scenecut=40 / intra_refresh=0 / rc_lookahead=60 / rc=2pass / mbtree=0 / bitrate=2541 / ratetol=1.0 / qcomp=0.60 / qpmin=0 / qpmax=69 / qpstep=4 / cplxblur=20.0 / qblur=0.5 / vbv_maxrate=50000 / vbv_bufsize=62500 / nal_hrd=none / filler=0 / ip_ratio=1.40 / pb_ratio=1.30 / aq=3:1.10 / zones=146000,153598,q=30
Default : Yes
Forced : No

Audio
ID : 2
Format : AC-3
Format/Info : Audio Coding 3
Commercial name : Dolby Digital
Codec ID : A_AC3
Duration : 1 h 46 min
Bit rate mode : Constant
Bit rate : 384 kb/s
Channel(s) : 6 channels
Channel layout : L R C LFE Ls Rs
Sampling rate : 48.0 kHz
Frame rate : 31.250 FPS (1536 SPF)
Bit depth : 16 bits
Compression mode : Lossy
Stream size : 293 MiB (13%)
Language : Russian
Service kind : Complete Main
Default : Yes
Forced : No

Menu
00:00:00.000 : ru:Chapter 01
00:02:23.291 : ru:Chapter 02
00:12:57.625 : ru:Chapter 03
00:24:11.750 : ru:Chapter 04
00:37:37.916 : ru:Chapter 05
00:50:45.708 : ru:Chapter 06
01:04:37.625 : ru:Chapter 07
01:16:17.291 : ru:Chapter 08
01:30:06.250 : ru:Chapter 09






General
Unique ID : 216942353109412256860468520054423201061 (0xA33593D0DFEADBD48233BA92EDFAA525)
Complete name : C:\Cold.Tango.2017.BDRip.1080p.mkv
Format : Matroska
Format version : Version 2
File size : 10.7 GiB
Duration : 1 h 46 min
Overall bit rate : 14.4 Mb/s
Movie name : Холодное танго.2017.Rip by: ollan
Encoded date : UTC 2017-11-04 08:01:10
Writing application : mkvmerge v5.6.0 ('Kenya Kane') built on May 27 2012 16:44:04
Writing library : libebml v1.2.3 + libmatroska v1.3.0
Cover : Yes
Attachments : Cover - Cold.Tango..png

Video
ID : 1
Format : AVC
Format/Info : Advanced Video Codec
Format profile : High@L4.1
Format settings : CABAC / 4 Ref Frames
Format settings, CABAC : Yes
Format settings, Reference : 4 frames
Codec ID : V_MPEG4/ISO/AVC
Duration : 1 h 46 min
Bit rate : 12.3 Mb/s
Width : 1 920 pixels
Height : 1 040 pixels
Display aspect ratio : 1.85:1
Frame rate mode : Constant
Frame rate : 24.000 FPS
Color space : YUV
Chroma subsampling : 4:2:0
Bit depth : 8 bits
Scan type : Progressive
Bits/(Pixel*Frame) : 0.256
Stream size : 8.92 GiB (83%)
Writing library : x264 core 146 r2538 121396c
Encoding settings : cabac=1 / ref=4 / deblock=1:-2:-3 / analyse=0x3:0x133 / me=umh / subme=11 / psy=1 / psy_rd=0.90:0.05 / mixed_ref=1 / me_range=64 / chroma_me=1 / trellis=2 / 8x8dct=1 / cqm=0 / deadzone=21,11 / fast_pskip=0 / chroma_qp_offset=-3 / threads=12 / lookahead_threads=3 / sliced_threads=0 / nr=0 / decimate=0 / interlaced=0 / bluray_compat=0 / constrained_intra=0 / bframes=10 / b_pyramid=2 / b_adapt=2 / b_bias=0 / direct=3 / weightb=1 / open_gop=0 / weightp=2 / keyint=240 / keyint_min=23 / scenecut=40 / intra_refresh=0 / rc_lookahead=40 / rc=2pass / mbtree=0 / bitrate=12266 / ratetol=1.0 / qcomp=0.60 / qpmin=0 / qpmax=69 / qpstep=4 / cplxblur=20.0 / qblur=0.5 / vbv_maxrate=50000 / vbv_bufsize=62500 / nal_hrd=none / filler=0 / ip_ratio=1.40 / pb_ratio=1.30 / aq=1:1.00
Language : Russian
Default : Yes
Forced : No

Audio #1
ID : 2
Format : AC-3
Format/Info : Audio Coding 3
Commercial name : Dolby Digital
Codec ID : A_AC3
Duration : 1 h 46 min
Bit rate mode : Constant
Bit rate : 640 kb/s
Channel(s) : 6 channels
Channel layout : L R C LFE Ls Rs
Sampling rate : 48.0 kHz
Frame rate : 31.250 FPS (1536 SPF)
Bit depth : 16 bits
Compression mode : Lossy
Stream size : 488 MiB (4%)
Title : Лицензия
Language : Russian
Service kind : Complete Main
Default : Yes
Forced : No

Audio #2
ID : 3
Format : DTS
Format/Info : Digital Theater Systems
Codec ID : A_DTS
Duration : 1 h 46 min
Bit rate mode : Constant
Bit rate : 1 509 kb/s
Channel(s) : 6 channels
Channel layout : C L R Ls Rs LFE
Sampling rate : 48.0 kHz
Frame rate : 93.750 FPS (512 SPF)
Bit depth : 24 bits
Compression mode : Lossy
Stream size : 1.12 GiB (10%)
Title : Лицензия
Language : Russian
Default : No
Forced : No

Menu
00:00:00.000 : ru:Chapter 01
00:02:23.291 : ru:Chapter 02
00:12:57.625 : ru:Chapter 03
00:24:11.750 : ru:Chapter 04
00:37:37.916 : ru:Chapter 05
00:50:45.708 : ru:Chapter 06
01:04:37.625 : ru:Chapter 07
01:16:17.291 : ru:Chapter 08
01:30:06.250 : ru:Chapter 09






Screenshots BDRip

Cold Tango / Kholodnoe tango / Холодное танго (2017)

Cold Tango / Kholodnoe tango / Холодное танго 			  		  		  	 			   			  	  		  		  	 			   		 			  		 	 	  	 			   		  	   		 	    		  	 			 (2017)

Cold Tango / Kholodnoe tango / Холодное танго (2017)


Screenshots BDRip 1080p

Cold Tango / Kholodnoe tango / Холодное танго (2017)

Cold Tango / Kholodnoe tango / Холодное танго (2017)

Cold Tango / Kholodnoe tango / Холодное танго (2017)