Cosmos A Space Time Odyssey S01E03-E05 (2014)

Posted By: vivid23
Cosmos A Space Time Odyssey S01E03-E05 (2014)

Cosmos A Space Time Odyssey S01E03-E05 (2014)
HDTV | 1280x720 | MKV/x264 @ 2744 Kbps | 3x43mn | Audio: English AC3 448 kbps, 6 channels | Subs: None | 3x1.01 GB
Genre: Documentary

More than three decades after the debut of “Cosmos,” Carl Sagan’s stunning and iconic exploration of the universe as revealed by science, FOX sets off on a voyage for the stars with “COSMOS: A SPACE-TIME ODYSSEY”. Seth MacFarlane (FAMILY GUY, AMERICAN DAD) has teamed up with Sagan’s original creative collaborators – writer/producer Ann Druyan and astrophysicist Steven Soter – to conceive a 13-part “docu-series” that will serve as a successor to the Emmy and Peabody Award-winning original series.

More info

Season 01 , Episode 3 – “When Knowledge Conquered Fear”
A comet’s path is traced on its long plunge toward the sun. Also: a visit to Isaac Newton’s birthplace; and a look at his friendship with Edmond Halley, whose interest in Newton’s work led him to publish the latter’s “Principia Mathematica.”

Season 01 , Episode 4 – “A Sky Full of Ghosts”
A journey back to 1809 features astronomer William Herschel’s observations on the effects of light on time and gravity. Also: Tyson travels to the event horizon of a black hole.

Season 01 , Episode 5 – “Hiding in the Light”
The behavior of light and its relationship to vision are studied by Ibn al-Haytham in the Middle East during the 11th century. Also: astronomer William Herschel discovers infrared radiation in 1800.

Video
ID : 1
Format : AVC
Format/Info : Advanced Video Codec
Format profile : High@L4.1
Format settings, CABAC : Yes
Format settings, ReFrames : 5 frames
Codec ID : V_MPEG4/ISO/AVC
Duration : 43mn 8s
Bit rate : 2 744 Kbps
Width : 1 280 pixels
Height : 720 pixels
Display aspect ratio : 16:9
Frame rate : 23.976 fps
Color space : YUV
Chroma subsampling : 4:2:0
Bit depth : 8 bits
Scan type : Progressive
Bits/(Pixel*Frame) : 0.124
Stream size : 847 MiB (84%)
Writing library : x264 core 142 r2409 d6b4e63
Encoding settings : cabac=1 / ref=5 / deblock=1:0:0 / analyse=0x3:0x113 / me=umh / subme=8 / psy=1 / psy_rd=1.00:0.00 / mixed_ref=1 / me_range=16 / chroma_me=1 / trellis=1 / 8x8dct=1 / cqm=0 / deadzone=21,11 / fast_pskip=1 / chroma_qp_offset=-2 / threads=18 / lookahead_threads=4 / sliced_threads=0 / nr=0 / decimate=1 / interlaced=0 / bluray_compat=0 / constrained_intra=0 / bframes=5 / b_pyramid=2 / b_adapt=2 / b_bias=0 / direct=3 / weightb=1 / open_gop=0 / weightp=2 / keyint=250 / keyint_min=23 / scenecut=40 / intra_refresh=0 / rc_lookahead=50 / rc=crf / mbtree=1 / crf=20.0 / qcomp=0.60 / qpmin=0 / qpmax=69 / qpstep=4 / ip_ratio=1.40 / aq=1:1.00

Audio
ID : 2
Format : AC-3
Format/Info : Audio Coding 3
Mode extension : CM (complete main)
Codec ID : A_AC3
Duration : 43mn 8s
Bit rate mode : Constant
Bit rate : 448 Kbps
Channel(s) : 6 channels
Channel positions : Front: L C R, Side: L R, LFE
Sampling rate : 48.0 KHz
Bit depth : 16 bits
Compression mode : Lossy
Video delay : -84ms
Stream size : 138 MiB (14%)


Cosmos A Space Time Odyssey S01E03-E05 (2014)

Cosmos A Space Time Odyssey S01E03-E05 (2014)