Cosmos A Space Time Odyssey S01E06-E08 (2014)

Posted By: vivid23
Cosmos A Space Time Odyssey S01E06-E08 (2014)

Cosmos A Space Time Odyssey S01E06-E08 (2014)
HDTV | 1280x720 | MKV/x264 @ 3801 Kbps | 3x43mn | Audio: English AC3 448 kbps, 6 channels | Subs: None | 3x1.31 GB
Genre: Documentary

More than three decades after the debut of “Cosmos,” Carl Sagan’s stunning and iconic exploration of the universe as revealed by science, FOX sets off on a voyage for the stars with “COSMOS: A SPACE-TIME ODYSSEY”. Seth MacFarlane (FAMILY GUY, AMERICAN DAD) has teamed up with Sagan’s original creative collaborators – writer/producer Ann Druyan and astrophysicist Steven Soter – to conceive a 13-part “docu-series” that will serve as a successor to the Emmy and Peabody Award-winning original series.

More info

Season 01 , Episode 6 – “Deeper, Deeper, Deeper Still”
A look at exotic life forms that are invisible to the naked eye; an examination of the parts of the brain responsible for the sense of smell and memory; a journey beneath the Earth’s surface to discover a mysterious particle.

Season 01 , Episode 7 – “The Clean Room”
A look at the work of geochemist Clair Patterson (1922-95), who calculated the age of the Earth—4.5 billion years—using a uranium-lead dating method, and also drew attention to the dangers of lead in the atmosphere and the food chain.

Season 01 , Episode 8 – “Sisters of the Sun”
A spotlight on the work of female astronomers, including Annie Jump Cannon (1863-1941), who cataloged stars by class, and Cecilia Payne (1900-79), who calculated the chemical compositions of stars. Also: an exploration of the lives and deaths of stars; and a visit to the planet of a star orbiting a globular cluster.

Video
ID : 1
Format : AVC
Format/Info : Advanced Video Codec
Format profile : High@L4.1
Format settings, CABAC : Yes
Format settings, ReFrames : 5 frames
Codec ID : V_MPEG4/ISO/AVC
Duration : 43mn 13s
Bit rate : 3 801 Kbps
Width : 1 280 pixels
Height : 720 pixels
Display aspect ratio : 16:9
Frame rate : 23.976 fps
Color space : YUV
Chroma subsampling : 4:2:0
Bit depth : 8 bits
Scan type : Progressive
Bits/(Pixel*Frame) : 0.172
Stream size : 1.15 GiB (88%)
Writing library : x264 core 142 r2409 d6b4e63
Encoding settings : cabac=1 / ref=5 / deblock=1:0:0 / analyse=0x3:0x113 / me=umh / subme=8 / psy=1 / psy_rd=1.00:0.00 / mixed_ref=1 / me_range=16 / chroma_me=1 / trellis=1 / 8x8dct=1 / cqm=0 / deadzone=21,11 / fast_pskip=0 / chroma_qp_offset=-2 / threads=18 / lookahead_threads=4 / sliced_threads=0 / nr=0 / decimate=1 / interlaced=0 / bluray_compat=0 / constrained_intra=0 / bframes=5 / b_pyramid=2 / b_adapt=2 / b_bias=0 / direct=3 / weightb=1 / open_gop=0 / weightp=2 / keyint=250 / keyint_min=23 / scenecut=40 / intra_refresh=0 / rc_lookahead=50 / rc=crf / mbtree=1 / crf=20.0 / qcomp=0.60 / qpmin=0 / qpmax=69 / qpstep=4 / ip_ratio=1.40 / aq=1:1.00
Language : English

Audio
ID : 2
Format : AC-3
Format/Info : Audio Coding 3
Mode extension : CM (complete main)
Codec ID : A_AC3
Duration : 43mn 13s
Bit rate mode : Constant
Bit rate : 448 Kbps
Channel(s) : 6 channels
Channel positions : Front: L C R, Side: L R, LFE
Sampling rate : 48.0 KHz
Bit depth : 16 bits
Compression mode : Lossy
Stream size : 139 MiB (10%)


Cosmos A Space Time Odyssey S01E06-E08 (2014)

Cosmos A Space Time Odyssey S01E06-E08 (2014)




http://uploaded.net/file/o3auef5z/cosmos_06.part1.rar
http://uploaded.net/file/ud3ashjy/cosmos_06.part2.rar
http://uploaded.net/file/le4i3pm6/cosmos_06.part3.rar
http://uploaded.net/file/upzc0wsc/cosmos_06.part4.rar
http://uploaded.net/file/1wzzrczc/cosmos_07.part1.rar
http://uploaded.net/file/7enbc1xv/cosmos_07.part2.rar
http://uploaded.net/file/jj8awhep/cosmos_07.part3.rar
http://uploaded.net/file/w1n9z14l/cosmos_08.part1.rar
http://uploaded.net/file/qtswwa9z/cosmos_08.part2.rar
http://uploaded.net/file/by2k0vvo/cosmos_08.part3.rar

http://www.uploadable.ch/file/zqvN96p2CZFA/cosmos_06.part1.rar
http://www.uploadable.ch/file/uZRj4a2xGarZ/cosmos_06.part2.rar
http://www.uploadable.ch/file/dpVeQWwqCC9N/cosmos_06.part3.rar
http://www.uploadable.ch/file/b5rXmQYUuRUZ/cosmos_06.part4.rar
http://www.uploadable.ch/file/YjDbvGcfAJBk/cosmos_07.part1.rar
http://www.uploadable.ch/file/ksukzXW3yAww/cosmos_07.part2.rar
http://www.uploadable.ch/file/mxuHtS7JjYWc/cosmos_07.part3.rar
http://www.uploadable.ch/file/KKmqB7t5UXeY/cosmos_08.part1.rar
http://www.uploadable.ch/file/uubsN7evtvf3/cosmos_08.part2.rar
http://www.uploadable.ch/file/5mpRxs6f4yWb/cosmos_08.part3.rar

http://www.oboom.com/NI27DZ5R/cosmos_06.part1.rar
http://www.oboom.com/NLZYB2DR/cosmos_06.part2.rar
http://www.oboom.com/DKB9L3YD/cosmos_06.part3.rar
http://www.oboom.com/MY1ACQVT/cosmos_06.part4.rar
http://www.oboom.com/M3HK3Y96/cosmos_07.part1.rar
http://www.oboom.com/9BZ9F8PQ/cosmos_07.part2.rar
http://www.oboom.com/BA4KJ77H/cosmos_07.part3.rar
http://www.oboom.com/5WJ38TBQ/cosmos_08.part1.rar
http://www.oboom.com/J6M7HOEX/cosmos_08.part2.rar
http://www.oboom.com/2RGHOFKF/cosmos_08.part3.rar