Crimes of Passion (2005)

Posted By: Tavaz
1080p (FullHD) / WEB-DL IMDb
Crimes of Passion (2005)

Crimes of Passion (2005)
WEB-DL | MKV | 1920x1080 | English | H264 @ 4800 kbps | AC-3 @ 384 kbps | 1 h 29 min | 3.22 GiB
Subtitles: English
Genre: Mystery, Thriller, TV Movie

While in competition for a job promotion, the female competitor sues her male counterpart for sexual harassment. Blackmail and murder follow closely behind.

Crimes.of.Passion.2005.1080p.WEB-DL.DD5.1.H.264.CRO-DIAMOND.mkv (3.2 GB)



General
Unique ID : 312209201240147434143638798379856886609 (0xEAE14E11BCF4A465F05800AF1192FB51)
Complete name : ./Crimes.of.Passion.2005.1080p.WEB-DL.DD5.1.H.264.CRO-DIAMOND.mkv
Format : Matroska
Format version : Version 4 / Version 2
File size : 3.22 GiB
Duration : 1 h 29 min
Overall bit rate : 5 151 kb/s
Movie name : CRO DIAMOND 1080p
Encoded date : UTC 2018-03-09 23:44:03
Writing application : mkvmerge v9.6.0 ('Slave To Your Mind') 64bit
Writing library : libebml v1.3.4 + libmatroska v1.4.5

Video
ID : 1
Format : AVC
Format/Info : Advanced Video Codec
Format profile : High@L4
Format settings : CABAC / 4 Ref Frames
Format settings, CABAC : Yes
Format settings, RefFrames : 4 frames
Codec ID : V_MPEG4/ISO/AVC
Duration : 1 h 29 min
Bit rate : 4 800 kb/s
Width : 1 920 pixels
Height : 1 080 pixels
Display aspect ratio : 16:9
Frame rate mode : Constant
Frame rate : 23.976 (24000/1001) FPS
Color space : YUV
Chroma subsampling : 4:2:0
Bit depth : 8 bits
Scan type : Progressive
Bits/(Pixel*Frame) : 0.097
Stream size : 2.98 GiB (93%)
Title : CRO DIAMOND 1080p
Writing library : x264 core 142 r2389 956c8d8
Encoding settings : cabac=1 / ref=3 / deblock=1:-1:-1 / analyse=0x3:0x113 / me=hex / subme=7 / psy=1 / psy_rd=1.00:0.00 / mixed_ref=1 / me_range=16 / chroma_me=1 / trellis=1 / 8x8dct=1 / cqm=0 / deadzone=21,11 / fast_pskip=1 / chroma_qp_offset=-2 / threads=6 / lookahead_threads=1 / sliced_threads=0 / nr=0 / decimate=1 / interlaced=0 / bluray_compat=0 / constrained_intra=0 / bframes=3 / b_pyramid=2 / b_adapt=1 / b_bias=0 / direct=1 / weightb=1 / open_gop=0 / weightp=2 / keyint=240 / keyint_min=24 / scenecut=40 / intra_refresh=0 / rc_lookahead=40 / rc=abr / mbtree=1 / bitrate=4800 / ratetol=1.0 / qcomp=0.60 / qpmin=0 / qpmax=69 / qpstep=4 / vbv_maxrate=62500 / vbv_bufsize=78125 / nal_hrd=none / filler=0 / ip_ratio=1.40 / aq=1:1.00
Default : Yes
Forced : No
Color range : Limited
Color primaries : BT.709
Transfer characteristics : BT.709
Matrix coefficients : BT.709

Audio
ID : 2
Format : AC-3
Format/Info : Audio Coding 3
Format settings, Endianness : Big
Codec ID : A_AC3
Duration : 1 h 29 min
Bit rate mode : Constant
Bit rate : 384 kb/s
Channel(s) : 6 channels
Channel positions : Front: L C R, Side: L R, LFE
Sampling rate : 44.1 kHz
Frame rate : 28.711 FPS (1536 SPF)
Bit depth : 16 bits
Compression mode : Lossy
Stream size : 246 MiB (7%)
Language : English
Service kind : Complete Main
Default : Yes
Forced : No

Text
ID : 3
Format : UTF-8
Codec ID : S_TEXT/UTF8
Codec ID/Info : UTF-8 Plain Text
Duration : 1 h 26 min
Bit rate : 74 b/s
Count of elements : 1218
Stream size : 46.9 KiB (0%)
Language : English
Default : Yes
Forced : No

Menu
00:00:00.000 : en:Chapter 1
00:05:56.000 : en:Chapter 2
00:10:13.000 : en:Chapter 3
00:18:43.000 : en:Chapter 4
00:39:46.000 : en:Chapter 5
00:50:48.000 : en:Chapter 6
01:15:27.000 : en:Chapter 7
01:26:59.000 : en:Chapter 8





Crimes of Passion (2005)


Crimes of Passion (2005)


Crimes of Passion (2005)


Crimes of Passion (2005)


Crimes of Passion (2005)