BBC This World - Cuba with Simon Reeve (2012)

Posted By: Tutorial
SD / DVDRip
BBC This World - Cuba with Simon Reeve (2012)

BBC This World - Cuba with Simon Reeve (2012)
PDTV | 720 x 416 | .AVI/XviD @ 1530 Kbps | 58mn 50s | 701 MB
Audio: English AC-3 128 Kbps, 2 channels | Subs: English
Genre: Documentary, Sociopolitical

Adventurer and journalist Simon Reeve heads to Cuba to find a communist country in the middle of a capitalist revolution. Two years ago Cuba announced the most sweeping and radical economic reforms the country has seen in decades. From ending state rationing to cutting one million public-sector jobs, one of the last communist bastions in the world has begun rolling back the state on an unprecedented scale. Simon Reeve meets ordinary Cubans whose lives are being transformed, from the owners of fledgling businesses to the newly rich estate agents selling properties worth up to £750,000.
Simon gets under the skin of a colourful and vibrant country famous for its hospitality and humour and asks if this new economic openness could lead to political liberalisation in a totalitarian country with a poor human rights record. Will Cuba be able to maintain the positive aspects of its long isolation under socialism - low crime, top-notch education and one of the best health systems in the world - while embracing what certainly looks like capitalism? Is this the last chance to see Cuba before it becomes just like any other country?

also You can look my other last: Cuba-posts

General
Complete name : BBC.This.World.2012.Cuba.with.Simon.Reeve.avi
Format : AVI
Format/Info : Audio Video Interleave
File size : 701 MiB
Duration : 58 min 48 s
Overall bit rate : 1 665 kb/s
Writing application : VirtualDubMod 1.5.4.1 (build 2178/release)
Writing library : VirtualDubMod build 2178/release

Video
ID : 0
Format : MPEG-4 Visual
Format profile : Advanced Simple@L5
Format settings, BVOP : 1
Format settings, QPel : No
Format settings, GMC : No warppoints
Format settings, Matrix : Custom
Codec ID : XVID
Codec ID/Hint : XviD
Duration : 58 min 48 s
Bit rate : 1 530 kb/s
Width : 720 pixels
Height : 416 pixels
Display aspect ratio : 1.731
Frame rate : 25.000 FPS
Color space : YUV
Chroma subsampling : 4:2:0
Bit depth : 8 bits
Scan type : Progressive
Compression mode : Lossy
Bits/(Pixel*Frame) : 0.204
Stream size : 644 MiB (92%)
Writing library : XviD 1.1.2 (UTC 2006-11-01)

Audio
ID : 1
Format : AC-3
Format/Info : Audio Coding 3
Format settings, Endianness : Big
Codec ID : 2000
Duration : 58 min 48 s
Bit rate mode : Constant
Bit rate : 128 kb/s
Channel(s) : 2 channels
Channel positions : Front: L R
Sampling rate : 48.0 kHz
Frame rate : 31.250 FPS (1536 spf)
Bit depth : 16 bits
Compression mode : Lossy
Stream size : 53.8 MiB (8%)
Alignment : Split accross interleaves
Interleave, duration : 96 ms (2.40 video frames)
Interleave, preload duration : 96 ms
Service kind : Complete Main
Screenshots

BBC This World - Cuba with Simon Reeve (2012)

BBC This World - Cuba with Simon Reeve (2012)

BBC This World - Cuba with Simon Reeve (2012)

Welcome to my blog - daily update!

BBC This World - Cuba with Simon Reeve (2012)