D.A.R.Y.L. (1985)

Posted By: Without
1080p (FullHD) / WEB-DL IMDb
D.A.R.Y.L. (1985)

D.A.R.Y.L. (1985)
WEB-DL 1080p | MKV | 1920x1080 | AVC@9362 kb/s | English AC3@224 kb/s
Subs: English | 2 channels | 1 h 40 min | 6.72 GB
Genre: Family, Sci-Fi

A seemingly normal young boy turns out to be a top secret, military-created robot with superhuman abilities.

IMDB - 1 win & 2 nominations.


General
D.A.R.Y.L.1985.1080p.AMZN.WEB-DL.DD+2.0.H.264-SiGMA.mkv
Format : Matroska
Format version : Version 4 / Version 2
File size : 6.72 GiB
Duration : 1 h 40 min
Overall bit rate mode : Variable
Overall bit rate : 9 588 kb/s
Encoded date : UTC 2018-06-12 02:23:29
Writing application : mkvmerge v24.0.0 ('Beyond The Pale') 64-bit
Writing library : libebml v1.3.6 + libmatroska v1.4.9

Video
ID : 1
Format : AVC
Format/Info : Advanced Video Codec
Format profile : High@L4
Format settings : CABAC / 4 Ref Frames
Format settings, CABAC : Yes
Format settings, RefFrames : 4 frames
Codec ID : V_MPEG4/ISO/AVC
Duration : 1 h 40 min
Bit rate mode : Variable
Bit rate : 9 362 kb/s
Maximum bit rate : 15.0 Mb/s
Width : 1 920 pixels
Height : 1 080 pixels
Display aspect ratio : 16:9
Frame rate mode : Constant
Frame rate : 23.976 (24000/1001) FPS
Color space : YUV
Chroma subsampling : 4:2:0
Bit depth : 8 bits
Scan type : Progressive
Bits/(Pixel*Frame) : 0.188
Stream size : 6.56 GiB (98%)
Default : Yes
Forced : No
Color range : Limited
Color primaries : BT.709
Transfer characteristics : BT.709
Matrix coefficients : BT.709

Audio
ID : 2
Format : E-AC-3
Format/Info : Enhanced Audio Coding 3
Codec ID : A_EAC3
Duration : 1 h 40 min
Bit rate mode : Constant
Bit rate : 224 kb/s
Channel(s) : 2 channels
Channel positions : Front: L R
Sampling rate : 48.0 kHz
Frame rate : 187.500 FPS (256 SPF)
Compression mode : Lossy
Stream size : 161 MiB (2%)
Language : English
Service kind : Complete Main
Default : Yes
Forced : No

Text
ID : 3
Format : UTF-8
Codec ID : S_TEXT/UTF8
Codec ID/Info : UTF-8 Plain Text
Duration : 1 h 39 min
Bit rate : 57 b/s
Count of elements : 1544
Stream size : 41.8 KiB (0%)
Language : English
Default : No
Forced : No


WEB-DL 1080p Screenshots

D.A.R.Y.L. (1985)

D.A.R.Y.L. (1985)

D.A.R.Y.L. (1985)

D.A.R.Y.L. (1985)

D.A.R.Y.L. (1985)

D.A.R.Y.L. (1985)


Come Visit My Blog (•‿•)