Tags
Language
Tags

Dammu (2012)

Posted By: Tavaz
1080p (FullHD) / BDRip IMDb
Dammu (2012)

Dammu (2012)
BDRip | MKV | 1920x1080 | H264 @ 5760 kbps | AC-3 @ 448 kbps | 2 h 35 min | 6.73 GiB
Subtitles: English
Genre: Action, Drama

Ramachandra (NTR) - an orphan wants to helps out people and make enough bank balance so that he can settle in life by marrying a girl of his choice. He falls in love with Ashwini (Trisha) at the first sight. He comes to know that a royal family from a distant village are looking to adopt a youngster. Ramachandra approaches them and gets adopted. He goes to a village where there are faction fights between the royals of the two village. It is the turn of Ramachandra to kill the enemies so that his village gets justice and peace. The rest of the story is all about how differently Ramachandra achieves it.

4eb046b494cf86ac2da22b227dc8f85b.mkv (6.7 GB)



General
Unique ID : 26465781948258567292983265827605969474 (0x13E91FCB4807624619C94AB12AABFA42)
Complete name : ./4eb046b494cf86ac2da22b227dc8f85b.mkv
Format : Matroska
Format version : Version 4 / Version 2
File size : 6.73 GiB
Duration : 2 h 35 min
Overall bit rate : 6 207 kb/s
Movie name : Dammu.2012.1080p.BluRay.x264-nikt0
Encoded date : UTC 2020-11-25 22:13:49 / UTC 2020-11-24T21:17:22Z
Writing application : mkvmerge v47.0.0 ('Black Flag') 64-bit
Writing library : libebml v1.3.10 + libmatroska v1.5.2 / Lavf57.7.2

Video
ID : 1
Format : AVC
Format/Info : Advanced Video Codec
Format profile : High@L4
Format settings : CABAC / 4 Ref Frames
Format settings, CABAC : Yes
Format settings, RefFrames : 4 frames
Codec ID : V_MPEG4/ISO/AVC
Duration : 2 h 35 min
Bit rate : 5 760 kb/s
Width : 1 920 pixels
Height : 1 080 pixels
Display aspect ratio : 16:9
Frame rate mode : Constant
Frame rate : 24.000 FPS
Color space : YUV
Chroma subsampling : 4:2:0
Bit depth : 8 bits
Scan type : Progressive
Bits/(Pixel*Frame) : 0.116
Stream size : 6.11 GiB (91%)
Writing library : x264 core 155 r2901 7d0ff22
Encoding settings : cabac=1 / ref=4 / deblock=1:-3:-3 / analyse=0x3:0x133 / me=umh / subme=9 / psy=1 / psy_rd=1.10:0.25 / mixed_ref=1 / me_range=32 / chroma_me=1 / trellis=2 / 8x8dct=1 / cqm=0 / deadzone=6,6 / fast_pskip=1 / chroma_qp_offset=-4 / threads=34 / lookahead_threads=3 / sliced_threads=0 / nr=0 / decimate=1 / interlaced=0 / bluray_compat=0 / constrained_intra=0 / bframes=6 / b_pyramid=2 / b_adapt=2 / b_bias=0 / direct=3 / weightb=1 / open_gop=0 / weightp=2 / keyint=240 / keyint_min=24 / scenecut=40 / intra_refresh=0 / rc_lookahead=40 / rc=2pass / mbtree=1 / bitrate=5760 / ratetol=1.0 / qcomp=0.60 / qpmin=0 / qpmax=69 / qpstep=4 / cplxblur=20.0 / qblur=0.5 / vbv_maxrate=20000 / vbv_bufsize=25000 / nal_hrd=none / filler=0 / ip_ratio=1.40 / aq=1:1.00
Language : English
Default : Yes
Forced : No
Color range : Limited
Color primaries : BT.709
Transfer characteristics : BT.709
Matrix coefficients : BT.709
Statistics Tags Issue : mkvmerge v47.0.0 ('Black Flag') 64-bit 2020-11-25 22:13:49 / mkvmerge v47.0.0 ('Black Flag') 64-bit 2020-11-25 22:13:49 / UTC 2020-11-24T21:17:22Z
FromStats_BitRate : 5756811
FromStats_Duration : 02:35:07.709000000
FromStats_FrameCount : 223385
FromStats_StreamSize : 6697840660

Audio
ID : 2
Format : AC-3
Format/Info : Audio Coding 3
Format settings, Endianness : Big
Codec ID : A_AC3
Duration : 2 h 35 min
Bit rate mode : Constant
Bit rate : 448 kb/s
Channel(s) : 6 channels
Channel positions : Front: L C R, Side: L R, LFE
Sampling rate : 48.0 kHz
Frame rate : 31.250 FPS (1536 SPF)
Bit depth : 16 bits
Compression mode : Lossy
Stream size : 497 MiB (7%)
Title : Surround
Language : Telugu
Service kind : Complete Main
Default : Yes
Forced : No
Statistics Tags Issue : mkvmerge v47.0.0 ('Black Flag') 64-bit 2020-11-25 22:13:49 / mkvmerge v47.0.0 ('Black Flag') 64-bit 2020-11-25 22:13:49 / UTC 2020-11-24T21:17:22Z
FromStats_BitRate : 448000
FromStats_Duration : 02:35:07.040000000
FromStats_FrameCount : 290845
FromStats_StreamSize : 521194240

Text
ID : 3
Format : UTF-8
Codec ID : S_TEXT/UTF8
Codec ID/Info : UTF-8 Plain Text
Language : English
Default : Yes
Forced : No
Statistics Tags Issue : mkvmerge v47.0.0 ('Black Flag') 64-bit 2020-11-25 22:13:49 / mkvmerge v47.0.0 ('Black Flag') 64-bit 2020-11-25 22:13:49 / UTC 2020-11-24T21:17:22Z
FromStats_BitRate : 47
FromStats_Duration : 02:31:02.709000000
FromStats_FrameCount : 1143
FromStats_StreamSize : 54140

Menu
00:00:00.000 : :Chapter 1
00:01:28.417 : :Chapter 2
00:11:01.417 : :Chapter 3
00:17:53.250 : :Chapter 4
00:20:42.000 : :Chapter 5
00:25:04.750 : :Chapter 6
00:32:55.042 : :Chapter 7
00:40:01.542 : :Chapter 8
00:45:51.458 : :Chapter 9
00:50:24.583 : :Chapter 10
00:54:06.750 : :Chapter 11
01:02:49.042 : :Chapter 12
01:07:10.000 : :Chapter 13
01:10:40.083 : :Chapter 14
01:19:19.792 : :Chapter 15
01:27:12.083 : :Chapter 16
01:31:28.000 : :Chapter 17
01:33:38.667 : :Chapter 18
01:46:12.625 : :Chapter 19
01:55:50.042 : :Chapter 20
01:59:39.042 : :Chapter 21
02:03:21.042 : :Chapter 22
02:11:19.292 : :Chapter 23
02:19:56.000 : :Chapter 24
02:22:01.000 : :Chapter 25
02:23:10.958 : :Chapter 26
02:29:47.000 : :Chapter 27





Dammu (2012)


Dammu (2012)


Dammu (2012)


Dammu (2012)


Dammu (2012)