Tags
Language
Tags

Dark City (1998)

Posted By: Tavaz
720p (HD) / BDRip IMDb
Dark City (1998)

Dark City (1998)
BDRip | MKV | 1280x544 | English / English / English | H264 @ 9800 kbps | DTS @ 1509 kbps | 1 h 40 min | 8.28 GiB
Subtitles: Swedish, Danish, Finnish, Portuguese, German, Spanish, Japanese, Norwegian, English
Genre: Mystery, Science Fiction

A man struggles with memories of his past, including a wife he cannot remember, in a nightmarish world with no sun and run by beings with telekinetic powers who seek the souls of humans.

Dark.City.1998.Theatrical.Cut.720p.BluRay.DTS.x264-Ivandro-Obfuscated=0db8e346199720f8e445899338cef5b6086e95ea.part1.rar (4.3 GB)
Dark.City.1998.Theatrical.Cut.720p.BluRay.DTS.x264-Ivandro-Obfuscated=0db8e346199720f8e445899338cef5b6086e95ea.part2.rar (4.0 GB)



General
Unique ID : 231933425032082714627861553980089655258 (0xAE7CC0B9F2F7E6FC8A2CF72A703D5FDA)
Complete name : ./07e8e12b62f145198046410f0f5a6791.mkv
Format : Matroska
Format version : Version 4 / Version 2
File size : 8.28 GiB
Duration : 1 h 40 min
Overall bit rate : 11.8 Mb/s
Encoded date : UTC 2015-06-01 19:58:29
Writing application : mkvmerge v7.9.0 ('Birds') 64bit
Writing library : libebml v1.3.1 + libmatroska v1.4.2

Video
ID : 1
Format : AVC
Format/Info : Advanced Video Codec
Format profile : High@L4.1
Format settings : CABAC / 12 Ref Frames
Format settings, CABAC : Yes
Format settings, RefFrames : 12 frames
Codec ID : V_MPEG4/ISO/AVC
Duration : 1 h 40 min
Bit rate : 9 800 kb/s
Width : 1 280 pixels
Height : 544 pixels
Display aspect ratio : 2.35:1
Frame rate mode : Constant
Frame rate : 23.976 (24000/1001) FPS
Color space : YUV
Chroma subsampling : 4:2:0
Bit depth : 8 bits
Scan type : Progressive
Bits/(Pixel*Frame) : 0.587
Stream size : 6.88 GiB (83%)
Writing library : x264 core 146 r2538 121396c
Encoding settings : cabac=1 / ref=12 / deblock=1:-3:-3 / analyse=0x3:0x133 / me=umh / subme=10 / psy=1 / psy_rd=1.05:0.00 / mixed_ref=1 / me_range=48 / chroma_me=1 / trellis=2 / 8x8dct=1 / cqm=0 / deadzone=21,11 / fast_pskip=0 / chroma_qp_offset=-2 / threads=12 / lookahead_threads=2 / sliced_threads=0 / slices=4 / nr=0 / decimate=1 / interlaced=0 / bluray_compat=0 / constrained_intra=0 / bframes=8 / b_pyramid=2 / b_adapt=2 / b_bias=0 / direct=3 / weightb=1 / open_gop=0 / weightp=2 / keyint=250 / keyint_min=23 / scenecut=40 / intra_refresh=0 / rc_lookahead=40 / rc=2pass / mbtree=0 / bitrate=9800 / ratetol=1.0 / qcomp=0.70 / qpmin=0 / qpmax=69 / qpstep=4 / cplxblur=20.0 / qblur=0.5 / vbv_maxrate=62500 / vbv_bufsize=78125 / nal_hrd=none / filler=0 / ip_ratio=1.35 / pb_ratio=1.25 / aq=3:0.75
Language : English
Default : Yes
Forced : No

Audio #1
ID : 2
Format : DTS
Format/Info : Digital Theater Systems
Mode : 16
Format settings, Endianness : Big
Codec ID : A_DTS
Duration : 1 h 40 min
Bit rate mode : Constant
Bit rate : 1 509 kb/s
Channel(s) : 6 channels
Channel positions : Front: L C R, Side: L R, LFE
Sampling rate : 48.0 kHz
Frame rate : 93.750 FPS (512 SPF)
Bit depth : 24 bits
Compression mode : Lossy
Stream size : 1.06 GiB (13%)
Title : English DTS 5.1 @ 1509 KBps
Language : English
Default : Yes
Forced : Yes

Audio #2
ID : 3
Format : AC-3
Format/Info : Audio Coding 3
Format settings, Endianness : Big
Codec ID : A_AC3
Duration : 1 h 40 min
Bit rate mode : Constant
Bit rate : 192 kb/s
Channel(s) : 6 channels
Channel positions : Front: L C R, Side: L R, LFE
Sampling rate : 48.0 kHz
Frame rate : 31.250 FPS (1536 SPF)
Bit depth : 16 bits
Compression mode : Lossy
Stream size : 138 MiB (2%)
Title : English Commentary 1
Language : English
Service kind : Complete Main
Default : No
Forced : No

Audio #3
ID : 4
Format : AC-3
Format/Info : Audio Coding 3
Format settings, Endianness : Big
Codec ID : A_AC3
Duration : 1 h 40 min
Bit rate mode : Constant
Bit rate : 192 kb/s
Channel(s) : 6 channels
Channel positions : Front: L C R, Side: L R, LFE
Sampling rate : 48.0 kHz
Frame rate : 31.250 FPS (1536 SPF)
Bit depth : 16 bits
Compression mode : Lossy
Stream size : 138 MiB (2%)
Title : English Commentary 2
Language : English
Service kind : Complete Main
Default : No
Forced : No

Text #1
ID : 5
Format : UTF-8
Codec ID : S_TEXT/UTF8
Codec ID/Info : UTF-8 Plain Text
Duration : 1 h 39 min
Bit rate : 44 b/s
Count of elements : 1086
Stream size : 32.8 KiB (0%)
Title : English
Language : English
Default : Yes
Forced : No

Text #2
ID : 6
Format : UTF-8
Codec ID : S_TEXT/UTF8
Codec ID/Info : UTF-8 Plain Text
Duration : 1 h 39 min
Bit rate : 47 b/s
Count of elements : 1216
Stream size : 35.0 KiB (0%)
Title : English SDH
Language : English
Default : No
Forced : No

Text #3
ID : 7
Format : PGS
Muxing mode : zlib
Codec ID : S_HDMV/PGS
Codec ID/Info : Picture based subtitle format used on BDs/HD-DVDs
Duration : 1 h 33 min
Bit rate : 10.4 kb/s
Count of elements : 1846
Stream size : 6.98 MiB (0%)
Title : Danish
Language : Danish
Default : No
Forced : No

Text #4
ID : 8
Format : PGS
Muxing mode : zlib
Codec ID : S_HDMV/PGS
Codec ID/Info : Picture based subtitle format used on BDs/HD-DVDs
Duration : 1 h 33 min
Bit rate : 9 444 b/s
Count of elements : 1664
Stream size : 6.31 MiB (0%)
Title : Finnish
Language : Finnish
Default : No
Forced : No

Text #5
ID : 9
Format : PGS
Muxing mode : zlib
Codec ID : S_HDMV/PGS
Codec ID/Info : Picture based subtitle format used on BDs/HD-DVDs
Duration : 1 h 40 min
Bit rate : 12.3 kb/s
Count of elements : 2064
Stream size : 8.79 MiB (0%)
Title : German
Language : German
Default : No
Forced : No

Text #6
ID : 10
Format : PGS
Muxing mode : zlib
Codec ID : S_HDMV/PGS
Codec ID/Info : Picture based subtitle format used on BDs/HD-DVDs
Duration : 1 h 33 min
Bit rate : 9 552 b/s
Count of elements : 1974
Stream size : 6.38 MiB (0%)
Title : Japanese
Language : Japanese
Default : No
Forced : No

Text #7
ID : 11
Format : PGS
Muxing mode : zlib
Codec ID : S_HDMV/PGS
Codec ID/Info : Picture based subtitle format used on BDs/HD-DVDs
Duration : 1 h 27 min
Bit rate : 222 b/s
Count of elements : 190
Stream size : 142 KiB (0%)
Title : Japanese Forced
Language : Japanese
Default : No
Forced : No

Text #8
ID : 12
Format : PGS
Muxing mode : zlib
Codec ID : S_HDMV/PGS
Codec ID/Info : Picture based subtitle format used on BDs/HD-DVDs
Duration : 1 h 40 min
Bit rate : 20.8 kb/s
Count of elements : 2300
Stream size : 14.9 MiB (0%)
Title : Japanese SDH
Language : Japanese
Default : No
Forced : No

Text #9
ID : 13
Format : PGS
Muxing mode : zlib
Codec ID : S_HDMV/PGS
Codec ID/Info : Picture based subtitle format used on BDs/HD-DVDs
Duration : 1 h 33 min
Bit rate : 8 196 b/s
Count of elements : 1195
Stream size : 5.48 MiB (0%)
Title : Norwegian
Language : Norwegian
Default : No
Forced : No

Text #10
ID : 14
Format : PGS
Muxing mode : zlib
Codec ID : S_HDMV/PGS
Codec ID/Info : Picture based subtitle format used on BDs/HD-DVDs
Duration : 1 h 33 min
Bit rate : 12.1 kb/s
Count of elements : 1858
Stream size : 8.10 MiB (0%)
Title : Portuguese
Language : Portuguese
Default : No
Forced : No

Text #11
ID : 15
Format : PGS
Muxing mode : zlib
Codec ID : S_HDMV/PGS
Codec ID/Info : Picture based subtitle format used on BDs/HD-DVDs
Duration : 1 h 33 min
Bit rate : 11.7 kb/s
Count of elements : 1858
Stream size : 7.79 MiB (0%)
Title : Spanish
Language : Spanish
Default : No
Forced : No

Text #12
ID : 16
Format : PGS
Muxing mode : zlib
Codec ID : S_HDMV/PGS
Codec ID/Info : Picture based subtitle format used on BDs/HD-DVDs
Duration : 1 h 39 min
Bit rate : 9 463 b/s
Count of elements : 2356
Stream size : 6.76 MiB (0%)
Title : Spanish SDH
Language : Spanish
Default : No
Forced : No

Text #13
ID : 17
Format : PGS
Muxing mode : zlib
Codec ID : S_HDMV/PGS
Codec ID/Info : Picture based subtitle format used on BDs/HD-DVDs
Duration : 1 h 33 min
Bit rate : 8 166 b/s
Count of elements : 1103
Stream size : 5.46 MiB (0%)
Title : Swedish
Language : Swedish
Default : No
Forced : No

Menu
00:00:00.000 : en:The Stranger
00:02:53.882 : en:John Murdoch
00:07:18.688 : en:Dr. Schreber's Office
00:11:32.316 : en:Automat
00:16:34.660 : en:He Can Tune!
00:19:44.850 : en:Who Am I?
00:25:00.499 : en:Thinking In Circles
00:29:51.080 : en:Tuning Begins
00:41:42.791 : en:Imprinted Memories
00:49:34.971 : en:Search For Murdoch
00:55:46.384 : en:Tuning Time Again
01:01:23.429 : en:Do You Remember?
01:06:22.186 : en:"Sleep"
01:09:17.778 : en:Dark Secrets
01:18:21.405 : en:Final Imprint
01:28:56.956 : en:To Shell Beach
01:34:00.051 : en:End Credits





Dark City (1998)


Dark City (1998)


Dark City (1998)


Dark City (1998)


Dark City (1998)