David Lynch: The Art Life (2016) [Criterion Collection]

Posted By: RSU75
SD / DVDRip IMDb
David Lynch: The Art Life (2016) [Criterion Collection]

David Lynch: The Art Life (2016) [Criterion Collection, Spine #895]
DVDRip | MKV | AVC 720x480, ~ 1.7 Mbps | 1hr 28mn | 1.30 GB
English: Dolby AC3, 6 ch
Subtitles: English
Genre: Documentary, Biography
IMDB Rating: 7.3/10 (3.355 votes)
Criterion.com


Director: Jon Nguyen, Rick Barnes (co-director)
Stars: David Lynch

David Lynch takes us on an intimate journey through the formative years of his life. From his idyllic upbringing in small town America to the dark streets of Philadelphia, we follow Lynch as he traces the events that have helped to shape one of cinema's most enigmatic directors. David Lynch the Art Life infuses Lynch's own art, music and early films, shining a light into the dark corners of his unique world, giving audiences a better understanding of the man and the artist. As Lynch states "I think every time you do something, like a painting or whatever, you go with ideas and sometimes the past can conjure those ideas and color them, even if they're new ideas, the past colors them."




General
Unique ID : 245379932604342124758425410577729314250 (0xB89A74BC1E085DBF807C008B8ED7DDCA)
Complete name : M:\DavidLynch.TheArtLife.16.Cr.Dr\DavidLynch.TheArtLife.16.Cr.Dr.mkv
Format : Matroska
Format version : Version 4 / Version 2
File size : 1.30 GiB
Duration : 1 h 28 min
Overall bit rate : 2 105 kb/s
Movie name : Release RSU75
Encoded date : UTC 2018-04-23 06:38:42
Writing application : mkvmerge v6.6.0 ('The Edge Of The In Between') built on Dec 1 2013 17:55:00
Writing library : libebml v1.3.0 + libmatroska v1.4.1

Video
ID : 1
Format : AVC
Format/Info : Advanced Video Codec
Format profile : High@L3
Format settings : CABAC / 4 Ref Frames
Format settings, CABAC : Yes
Format settings, RefFrames : 4 frames
Codec ID : V_MPEG4/ISO/AVC
Duration : 1 h 28 min
Bit rate : 1 615 kb/s
Nominal bit rate : 1 700 kb/s
Width : 720 pixels
Height : 480 pixels
Display aspect ratio : 16:9
Original display aspect rat : 16:9
Frame rate mode : Constant
Frame rate : 23.976 (23976/1000) FPS
Color space : YUV
Chroma subsampling : 4:2:0
Bit depth : 8 bits
Scan type : Progressive
Bits/(Pixel*Frame) : 0.195
Stream size : 1.00 GiB (77%)
Writing library : x264 core 144 r2533 c8a773e
Encoding settings : cabac=1 / ref=4 / deblock=1:0:0 / analyse=0x3:0x113 / me=umh / subme=8 / psy=1 / psy_rd=1.00:0.00 / mixed_ref=1 / me_range=24 / chroma_me=1 / trellis=1 / 8x8dct=1 / cqm=0 / deadzone=21,11 / fast_pskip=1 / chroma_qp_offset=-2 / threads=3 / lookahead_threads=1 / sliced_threads=0 / nr=0 / decimate=1 / interlaced=0 / bluray_compat=0 / constrained_intra=0 / bframes=3 / b_pyramid=0 / b_adapt=2 / b_bias=0 / direct=3 / weightb=1 / open_gop=0 / weightp=2 / keyint=250 / keyint_min=25 / scenecut=40 / intra_refresh=0 / rc_lookahead=40 / rc=abr / mbtree=1 / bitrate=1700 / ratetol=1.0 / qcomp=0.60 / qpmin=10 / qpmax=51 / qpstep=4 / ip_ratio=1.41 / aq=1:1.00
Language : English
Default : Yes
Forced : No

Audio
ID : 2
Format : AC-3
Format/Info : Audio Coding 3
Format settings, Endianness : Big
Codec ID : A_AC3
Duration : 1 h 28 min
Bit rate mode : Constant
Bit rate : 448 kb/s
Channel(s) : 6 channels
Channel positions : Front: L C R, Side: L R, LFE
Sampling rate : 48.0 kHz
Frame rate : 31.250 FPS (1536 SPF)
Bit depth : 16 bits
Compression mode : Lossy
Delay relative to video : -42 ms
Stream size : 284 MiB (21%)
Language : English
Service kind : Complete Main
Default : Yes
Forced : No

Text
ID : 3
Format : VobSub
Muxing mode : zlib
Codec ID : S_VOBSUB
Codec ID/Info : Picture based subtitle format used on DVDs
Language : English
Default : Yes
Forced : No

Menu
00:00:00.000 : en:Chapter 01
00:03:55.768 : en:Chapter 02
00:11:59.218 : en:Chapter 03
00:15:01.767 : en:Chapter 04
00:21:05.430 : en:Chapter 05
00:30:06.671 : en:Chapter 06
00:36:15.506 : en:Chapter 07
00:47:03.654 : en:Chapter 08
00:53:46.389 : en:Chapter 09
00:59:27.564 : en:Chapter 10
01:10:42.071 : en:Chapter 11
01:19:18.754 : en:Chapter 12




Screenshots (click to enlarge to original size):

David Lynch: The Art Life (2016) [Criterion Collection]

David Lynch: The Art Life (2016) [Criterion Collection]

David Lynch: The Art Life (2016) [Criterion Collection]


David Lynch: The Art Life (2016) [Criterion Collection]




–––––––––––––––––––––––––––––––––––––––-
>>> "Criterion Collection" <<<OR >>> "DVDRip" <<<OR >>> "Documentary" <<<
–––––––––––––––––––––––––––––––––––––––-
>>> Visit Blog RSU75 Here <<<
–––––––––––––––––––––––––––––––––––––––-