Dead Man's Burden (2012)

Posted By: Without
720p (HD) / WEB-DL IMDb
Dead Man's Burden (2012)

Dead Man's Burden (2012)
WEB-DL 720p | MKV | 1280x720 | AVC@3352 kb/s | English AC3@640 kb/s
Subs: English | 6 channels | 1 h 32 min | 2.59 GB
Genre: Drama, Western

A western set on the New Mexico frontier a few years after the Civil War and centered on a struggling young family and the mining company who wants to buy their land.



General
Dead.Mans.Burden.2012.720p.Amazon.WEB-DL.DD+5.1.H.264-QOQ\Dead.Mans.Burden.2012.720p.Amazon.WEB-DL.DD+5.1.H.264-QOQ.mkv
Format : Matroska
Format version : Version 4 / Version 2
File size : 2.59 GiB
Duration : 1 h 32 min
Overall bit rate mode : Variable
Overall bit rate : 3 994 kb/s
Encoded date : UTC 2017-12-12 21:24:40
Writing application : mkvmerge v13.0.0 ('The Juggler') 64bit
Writing library : libebml v1.3.4 + libmatroska v1.4.5

Video
ID : 1
Format : AVC
Format/Info : Advanced Video Codec
Format profile : High@L3.1
Format settings, CABAC : Yes
Format settings, ReFrames : 5 frames
Codec ID : V_MPEG4/ISO/AVC
Duration : 1 h 32 min
Bit rate mode : Variable
Bit rate : 3 352 kb/s
Maximum bit rate : 4 500 kb/s
Width : 1 280 pixels
Height : 720 pixels
Display aspect ratio : 16:9
Frame rate mode : Constant
Frame rate : 23.976 (24000/1001) FPS
Color space : YUV
Chroma subsampling : 4:2:0
Bit depth : 8 bits
Scan type : Progressive
Bits/(Pixel*Frame) : 0.152
Stream size : 2.17 GiB (84%)
Default : Yes
Forced : No
Color range : Limited
Color primaries : BT.709
Transfer characteristics : BT.709
Matrix coefficients : BT.709

Audio
ID : 2
Format : E-AC-3
Format/Info : Enhanced Audio Coding 3
Format settings, Endianness : Big
Codec ID : A_EAC3
Duration : 1 h 32 min
Bit rate mode : Constant
Bit rate : 640 kb/s
Channel(s) : 6 channels
Channel positions : Front: L C R, Side: L R, LFE
Sampling rate : 48.0 kHz
Frame rate : 187.500 FPS (256 spf)
Compression mode : Lossy
Stream size : 425 MiB (16%)
Language : English
Default : Yes
Forced : No

Text
ID : 3
Format : UTF-8
Codec ID : S_TEXT/UTF8
Codec ID/Info : UTF-8 Plain Text
Duration : 1 h 30 min
Bit rate : 44 b/s
Count of elements : 1071
Stream size : 29.9 KiB (0%)
Language : English
Default : No
Forced : No


WEB-DL 720p Screenshots

Dead Man's Burden (2012)

Dead Man's Burden (2012)

Dead Man's Burden (2012)


Come Visit My Blog (•‿•)