Death Wish (2018)

Posted By: Tavaz
1080p (FullHD) / WEB-DL IMDb
Death Wish (2018)

Death Wish (2018)
WEB-DL | MKV | 1920x800 | English | H264 @ 4549 kbps | AC-3 @ 384 kbps | 1 h 46 min | 3.68 GiB
Subtitles: English
Genre: Action, Crime, Drama, Thriller

A mild-mannered father is transformed into a killing machine after his family is torn apart by a violent act.

English(1).srt (108.3 KB)
English.srt (108.3 KB)
Death.Wish.2018.1080p.WEB-DL.DD5.1.H264-FGT.mkv (3.7 GB)



General
Unique ID : 321897559591497968758566527934819033306 (0xF22B3703F6EC04CAF94C9BD80E5160DA)
Complete name : ./Death.Wish.2018.1080p.WEB-DL.DD5.1.H264-FGT/Death.Wish.2018.1080p.WEB-DL.DD5.1.H264-FGT.mkv
Format : Matroska
Format version : Version 4 / Version 2
File size : 3.68 GiB
Duration : 1 h 46 min
Overall bit rate : 4 935 kb/s
Movie name : Death.Wish.2018.1080p.WEB-DL.DD5.1.H264-FGT
Encoded date : UTC 2018-05-22 07:16:51
Writing application : mkvmerge v22.0.0 ('At The End Of The World') 64-bit
Writing library : libebml v1.3.5 + libmatroska v1.4.8

Video
ID : 1
Format : AVC
Format/Info : Advanced Video Codec
Format profile : High@L4
Format settings : CABAC / 5 Ref Frames
Format settings, CABAC : Yes
Format settings, RefFrames : 5 frames
Codec ID : V_MPEG4/ISO/AVC
Duration : 1 h 46 min
Bit rate : 4 549 kb/s
Width : 1 920 pixels
Height : 800 pixels
Display aspect ratio : 2.40:1
Frame rate mode : Constant
Frame rate : 23.976 (24000/1001) FPS
Color space : YUV
Chroma subsampling : 4:2:0
Bit depth : 8 bits
Scan type : Progressive
Bits/(Pixel*Frame) : 0.124
Stream size : 3.39 GiB (92%)
Title : Death.Wish.2018.1080p.WEB-DL.DD5.1.H264-FGT
Language : English
Default : Yes
Forced : No
Color range : Limited
Color primaries : BT.709
Transfer characteristics : BT.709
Matrix coefficients : BT.709

Audio
ID : 2
Format : AC-3
Format/Info : Audio Coding 3
Format settings, Endianness : Big
Codec ID : A_AC3
Duration : 1 h 46 min
Bit rate mode : Constant
Bit rate : 384 kb/s
Channel(s) : 6 channels
Channel positions : Front: L C R, Side: L R, LFE
Sampling rate : 48.0 kHz
Frame rate : 31.250 FPS (1536 SPF)
Bit depth : 16 bits
Compression mode : Lossy
Delay relative to video : -42 ms
Stream size : 293 MiB (8%)
Title : Death.Wish.2018.1080p.WEB-DL.DD5.1.H264-FGT
Language : English
Service kind : Complete Main
Default : Yes
Forced : No

Text
ID : 3
Format : UTF-8
Codec ID : S_TEXT/UTF8
Codec ID/Info : UTF-8 Plain Text
Duration : 1 h 39 min
Bit rate : 63 b/s
Count of elements : 1568
Stream size : 46.6 KiB (0%)
Language : English
Default : Yes
Forced : No

Menu
00:00:00.000 : en:1
00:11:42.000 : en:2
00:22:53.000 : en:3
00:34:51.000 : en:4
00:47:10.000 : en:5
01:00:27.000 : en:6
01:11:29.000 : en:7
01:21:50.000 : en:8
01:31:54.000 : en:9
01:40:12.000 : en:10





Death Wish (2018)


Death Wish (2018)


Death Wish (2018)


Death Wish (2018)


Death Wish (2018)