Die Goldfische (2019)

Posted By: Barfin
1080p (FullHD) / BDRip IMDb
Die Goldfische (2019)

Die Goldfische (2019)
BDRip 1080p | MKV / AVC@5017 kb/s | 1920x808 | 1h 47mn | Deutsch: DTS, 1509 kb/s (6 ch) | 4.98 GB
Genre: Comedy

Oliver ist Banker und Portfolio-Manager und führt ein Leben auf der Überholspur, das eines Tages ein abruptes Ende findet, als er mit 230 Km/h einen selbstverschuldeten Unfall auf Autobahn baut und durch eine Leitplanke rast. Als er im Krankenhaus wieder aufwacht, sieht er sich mit einer verheerenden Diagnose konfrontiert: Querschnittslähmung. Eigentlich ist nun ein mehrmonatiger Reha-Aufenthalt im Krankenhaus geplant, doch Oliver fällt schon bald die Decke auf den Kopf und so landet er schließlich in einer Behinderten-WG mit dem Namen „Die Goldfische“, die aus der blinden Zynikerin Magda, den Autisten Rainman und Michi und Franzi, einem toughen Mädchen mit Down-Syndrom besteht. Betreut werden sie von der idealistischen Laura und dem ausgebrannten Eddy. Schnell reift in Oliver ein Plan: Er will mit der Gruppe als Tarnung eine Reise in die Schweiz unternehmen, wo er einen Haufen Schwarzgeld gebunkert hat.


General
Complete name : C:\Barfin\Die.Goldfische.German.1080p.BluRay.x264-EmpireHD\Die.Goldfische.German.1080p.BluRay.x264.mkv
Format : Matroska
Format version : Version 2
File size : 4.98 GiB
Duration : 1 h 47 min
Overall bit rate : 6 659 kb/s
Writing application : mkvmerge v4.1.1 ('Bouncin' Back') built on Jul 3 2010 22:54:08
Writing library : libebml v1.0.0 + libmatroska v1.0

Video
ID : 1
Format : AVC
Format/Info : Advanced Video Codec
Format profile : High@L4.1
Format settings : CABAC / 5 Ref Frames
Format settings, CABAC : Yes
Format settings, Reference : 5 frames
Codec ID : V_MPEG4/ISO/AVC
Duration : 1 h 47 min
Bit rate : 5 017 kb/s
Width : 1 920 pixels
Height : 808 pixels
Display aspect ratio : 2.40:1
Frame rate mode : Constant
Frame rate : 25.000 FPS
Color space : YUV
Chroma subsampling : 4:2:0
Bit depth : 8 bits
Scan type : Progressive
Bits/(Pixel*Frame) : 0.129
Stream size : 3.75 GiB (75%)
Writing library : x264 core 157 r2969 d4099dd
Encoding settings : cabac=1 / ref=5 / deblock=1:-3:-3 / analyse=0x3:0x133 / me=umh / subme=8 / psy=1 / psy_rd=1.00:0.15 / mixed_ref=1 / me_range=16 / chroma_me=1 / trellis=1 / 8x8dct=1 / cqm=0 / deadzone=21,11 / fast_pskip=0 / chroma_qp_offset=-3 / threads=16 / lookahead_threads=2 / sliced_threads=0 / nr=0 / decimate=1 / interlaced=0 / bluray_compat=0 / constrained_intra=0 / bframes=3 / b_pyramid=2 / b_adapt=1 / b_bias=0 / direct=3 / weightb=1 / open_gop=0 / weightp=2 / keyint=250 / keyint_min=25 / scenecut=40 / intra_refresh=0 / rc_lookahead=40 / rc=crf / mbtree=1 / crf=20.0 / qcomp=0.60 / qpmin=10 / qpmax=69 / qpstep=4 / ip_ratio=1.40 / aq=1:1.00
Language : English
Default : Yes
Forced : No

Audio
ID : 2
Format : DTS
Format/Info : Digital Theater Systems
Codec ID : A_DTS
Duration : 1 h 47 min
Bit rate mode : Constant
Bit rate : 1 509 kb/s
Channel(s) : 6 channels
Channel layout : C L R Ls Rs LFE
Sampling rate : 48.0 kHz
Frame rate : 93.750 FPS (512 SPF)
Bit depth : 16 bits
Compression mode : Lossy
Stream size : 1.13 GiB (23%)
Language : German
Default : Yes
Forced : No

Menu
00:00:00.000 : en:00:00:00.000
00:05:19.760 : en:00:05:19.760
00:13:22.640 : en:00:13:22.640
00:22:13.359 : en:00:22:13.359
00:27:00.760 : en:00:27:00.760
00:34:09.520 : en:00:34:09.520
00:38:43.200 : en:00:38:43.200
00:47:33.439 : en:00:47:33.439
00:55:04.880 : en:00:55:04.880
01:03:07.600 : en:01:03:07.600
01:09:13.240 : en:01:09:13.240
01:17:25.760 : en:01:17:25.760
01:22:44.560 : en:01:22:44.560
01:27:18.120 : en:01:27:18.120
01:31:25.200 : en:01:31:25.200
01:37:30.880 : en:01:37:30.880




Screenshots

Die Goldfische (2019)

Die Goldfische (2019)

Die Goldfische (2019)