Dirty Grandpa (2016)

Posted By: Without
Dirty Grandpa (2016)

Dirty Grandpa (2016)
BDRip 1080p | MKV | 1920x800 | AVC@8870 Kbps | English DTS@1509 Kbps | 6 channels | 1h 49mn | 7.93 GB
Genre: Comedy

Right before his wedding, an uptight guy is tricked into driving his grandfather, a lecherous former Army Lieutenant-Colonel, to Florida for spring break.



General
Unique ID : 247277474306955521413829886757843883078 (0xBA07E8C38F9107DD85DC02648809D446)
Complete name : J:\Dirty.Grandpa.2016.1080p.BluRay.x264-GECKOS\Dirty.Grandpa.2016.1080p.BluRay.x264-GECKOS.mkv
Format : Matroska
Format version : Version 4 / Version 2
File size : 7.94 GiB
Duration : 1h 49mn
Overall bit rate : 10.4 Mbps
Encoded date : UTC 2016-05-03 20:08:13
Writing application : mkvmerge v8.3.0 ('Over the Horizon') 64bit
Writing library : libebml v1.3.1 + libmatroska v1.4.2

Video
ID : 1
Format : AVC
Format/Info : Advanced Video Codec
Format profile : High@L4.1
Format settings, CABAC : Yes
Format settings, ReFrames : 5 frames
Codec ID : V_MPEG4/ISO/AVC
Duration : 1h 49mn
Bit rate : 8 870 Kbps
Width : 1 920 pixels
Height : 800 pixels
Display aspect ratio : 2.40:1
Frame rate mode : Constant
Frame rate : 23.976 fps
Color space : YUV
Chroma subsampling : 4:2:0
Bit depth : 8 bits
Scan type : Progressive
Bits/(Pixel*Frame) : 0.241
Stream size : 6.78 GiB (85%)
Writing library : x264 core 148 r2692 64f4e24
Encoding settings : cabac=1 / ref=5 / deblock=1:0:0 / analyse=0x3:0x133 / me=umh / subme=7 / psy=1 / psy_rd=1.00:0.00 / mixed_ref=1 / me_range=16 / chroma_me=1 / trellis=1 / 8x8dct=1 / cqm=0 / deadzone=21,11 / fast_pskip=0 / chroma_qp_offset=-2 / threads=24 / lookahead_threads=4 / sliced_threads=0 / nr=0 / decimate=1 / interlaced=0 / bluray_compat=0 / constrained_intra=0 / bframes=3 / b_pyramid=2 / b_adapt=1 / b_bias=0 / direct=1 / weightb=1 / open_gop=0 / weightp=2 / keyint=250 / keyint_min=23 / scenecut=40 / intra_refresh=0 / rc_lookahead=40 / rc=2pass / mbtree=1 / bitrate=8870 / ratetol=1.0 / qcomp=0.60 / qpmin=0 / qpmax=69 / qpstep=4 / cplxblur=20.0 / qblur=0.5 / ip_ratio=1.40 / aq=1:1.00
Language : English
Default : Yes
Forced : No

Audio
ID : 2
Format : DTS
Format/Info : Digital Theater Systems
Mode : 16
Format settings, Endianness : Big
Codec ID : A_DTS
Duration : 1h 49mn
Bit rate mode : Constant
Bit rate : 1 509 Kbps
Channel(s) : 6 channels
Channel positions : Front: L C R, Side: L R, LFE
Sampling rate : 48.0 KHz
Frame rate : 93.750 fps (512 spf)
Bit depth : 24 bits
Compression mode : Lossy
Stream size : 1.15 GiB (15%)
Language : English
Default : Yes
Forced : No

Menu
00:00:00.000 : en:00:00:00.000
00:06:38.148 : en:00:06:38.148
00:11:28.730 : en:00:11:28.730
00:17:15.743 : en:00:17:15.743
00:25:03.585 : en:00:25:03.585
00:31:17.209 : en:00:31:17.209
00:37:24.450 : en:00:37:24.450
00:48:56.600 : en:00:48:56.600
00:52:35.360 : en:00:52:35.360
00:58:19.287 : en:00:58:19.287
01:03:28.554 : en:01:03:28.554
01:06:47.712 : en:01:06:47.712
01:14:30.049 : en:01:14:30.049
01:21:14.077 : en:01:21:14.077
01:28:26.843 : en:01:28:26.843
01:38:16.182 : en:01:38:16.182


BDRip 1080p Screenshots

Dirty Grandpa (2016)

Dirty Grandpa (2016)

Dirty Grandpa (2016)



Come Visit My Blog (•‿•)