Tags
Language
Tags

Dracula (1979)

Posted By: Tavaz
1080p (FullHD) / BDRip IMDb
Dracula (1979)

Dracula (1979)
BDRip | MKV | 1920x816 | English | H265 @ 2775 kbps | AC-3 @ 256 kbps | 1 h 49 min | 2.32 GiB
Subtitles: English
Genre: Horror, Romance

Romanticized adaptation of Bram Stoker's 1897 classic. Set in 1913 England, the bloodsucking, but handsome, charming and seductive, Count Dracula seeks an immortal bride.

758bfff6c96345e8b408859ae9262b03.mkv (2.3 GB)



General
Unique ID : 243977379774252205514488875526725111980 (0xB78C558A983C9AB0A03DEB1396BD10AC)
Complete name : ./758bfff6c96345e8b408859ae9262b03.mkv
Format : Matroska
Format version : Version 2
File size : 2.32 GiB
Duration : 1 h 49 min
Overall bit rate : 3 041 kb/s
Movie name : Dracula 1979 BluRay 10Bit 1080p AC3 H265-d3g
Encoded date : UTC 2018-03-05 18:21:38
Writing application : DVDFab 10.0.8.4
Writing library : libebml v1.3.4 + libmatroska v1.4.5

Video
ID : 1
Format : HEVC
Format/Info : High Efficiency Video Coding
Format profile : Main 10@L4@Main
Codec ID : V_MPEGH/ISO/HEVC
Duration : 1 h 49 min
Bit rate : 2 776 kb/s
Width : 1 920 pixels
Height : 816 pixels
Display aspect ratio : 2.35:1
Frame rate mode : Constant
Frame rate : 23.976 (24000/1001) FPS
Color space : YUV
Chroma subsampling : 4:2:0
Bit depth : 10 bits
Bits/(Pixel*Frame) : 0.074
Stream size : 2.11 GiB (91%)
Default : Yes
Forced : No
Color range : Limited
Color primaries : BT.709
Transfer characteristics : BT.709
Matrix coefficients : BT.709

Audio
ID : 2
Format : AC-3
Format/Info : Audio Coding 3
Format settings, Endianness : Big
Codec ID : A_AC3
Duration : 1 h 49 min
Bit rate mode : Constant
Bit rate : 256 kb/s
Channel(s) : 2 channels
Channel positions : Front: L R
Sampling rate : 48.0 kHz
Frame rate : 31.250 FPS (1536 SPF)
Bit depth : 16 bits
Compression mode : Lossy
Stream size : 200 MiB (8%)
Language : English
Service kind : Complete Main
Default : Yes
Forced : No

Text
ID : 3
Format : VobSub
Codec ID : S_VOBSUB
Codec ID/Info : Picture based subtitle format used on DVDs
Duration : 1 h 45 min
Bit rate : 7 847 b/s
Count of elements : 1200
Stream size : 5.93 MiB (0%)
Language : English
Default : No
Forced : No

Menu
00:00:00.000 : en:(01)00:00:00:000
00:03:56.069 : en:(02)00:03:56:069
00:10:04.645 : en:(03)00:10:04:645
00:15:45.402 : en:(04)00:15:45:402
00:23:56.101 : en:(05)00:23:56:101
00:30:02.342 : en:(06)00:30:02:342
00:35:44.600 : en:(07)00:35:44:600
00:41:14.889 : en:(08)00:41:14:889
00:44:53.232 : en:(09)00:44:53:232
00:52:35.527 : en:(10)00:52:35:527
00:57:08.133 : en:(11)00:57:08:133
01:03:58.876 : en:(12)01:03:58:876
01:10:28.849 : en:(13)01:10:28:849
01:14:30.090 : en:(14)01:14:30:090
01:19:47.699 : en:(15)01:19:47:699
01:25:06.518 : en:(16)01:25:06:518
01:30:40.309 : en:(17)01:30:40:309
01:39:54.196 : en:(18)01:39:54:196
01:49:04.412 : en:(19)01:49:04:412





Dracula (1979)


Dracula (1979)


Dracula (1979)


Dracula (1979)


Dracula (1979)