Dragon Dynasty (2006)

Posted By: Tavaz
1080p (FullHD) / BDRip IMDb
Dragon Dynasty (2006)

Dragon Dynasty (2006)
BDRip | MKV | 1920x1080 | English | H265 @ 2838 kbps | AC-3 @ 448 kbps | 1 h 28 min | 2.03 GiB
Genre: Adventure, Fantasy

A group of European explorers returning from China battle a pair of dragons sent by an evil wizard intent on keeping his land a secret.

e1255f94b20940b3965acc710c855d88.mkv (2.0 GB)



General
Complete name : ./e1255f94b20940b3965acc710c855d88.mkv
Format : Matroska
Format version : Version 2
File size : 2.03 GiB
Duration : 1 h 28 min
Overall bit rate : 3 288 kb/s
Encoded date : UTC 2017-12-30 18:26:57
Writing application : DVDFab 10.0.6.6
Writing library : libebml v1.3.4 + libmatroska v1.4.5

Video
ID : 1
Format : HEVC
Format/Info : High Efficiency Video Coding
Format profile : Main 10@L4@High
Codec ID : V_MPEGH/ISO/HEVC
Duration : 1 h 28 min
Bit rate : 2 839 kb/s
Width : 1 920 pixels
Height : 1 080 pixels
Display aspect ratio : 16:9
Frame rate mode : Constant
Frame rate : 23.976 (24000/1001) FPS
Color space : YUV
Chroma subsampling : 4:2:0
Bit depth : 10 bits
Bits/(Pixel*Frame) : 0.057
Stream size : 1.75 GiB (86%)
Default : Yes
Forced : No
Color range : Limited
Color primaries : BT.709
Transfer characteristics : BT.709
Matrix coefficients : BT.709

Audio
ID : 2
Format : AC-3
Format/Info : Audio Coding 3
Format settings, Endianness : Big
Codec ID : A_AC3
Duration : 1 h 28 min
Bit rate mode : Constant
Bit rate : 448 kb/s
Channel(s) : 6 channels
Channel positions : Front: L C R, Side: L R, LFE
Sampling rate : 48.0 kHz
Frame rate : 31.250 FPS (1536 SPF)
Bit depth : 16 bits
Compression mode : Lossy
Stream size : 283 MiB (14%)
Language : English
Service kind : Complete Main
Default : Yes
Forced : No

Menu
00:00:00.000 : en:(01)00:00:00:000
00:06:50.993 : en:(02)00:06:50:993
00:14:44.466 : en:(03)00:14:44:466
00:21:01.760 : en:(04)00:21:01:760
00:27:06.708 : en:(05)00:27:06:708
00:33:52.155 : en:(06)00:33:52:155
00:41:01.333 : en:(07)00:41:01:333
00:48:28.614 : en:(08)00:48:28:614
00:53:48.808 : en:(09)00:53:48:808
01:01:40.947 : en:(10)01:01:40:947
01:10:08.120 : en:(11)01:10:08:120
01:18:51.017 : en:(12)01:18:51:017
01:28:11.286 : en:(13)01:28:11:286





Dragon Dynasty (2006)


Dragon Dynasty (2006)


Dragon Dynasty (2006)


Dragon Dynasty (2006)


Dragon Dynasty (2006)